<?xml version="1.0" standalone="no"?>
<!DOCTYPE svg PUBLIC "-//W3C//DTD SVG 1.1//EN" "http://www.w3.org/Graphics/SVG/1.1/DTD/svg11.dtd" >
<svg xmlns="http://www.w3.org/2000/svg">
<metadata></metadata>
<defs>
<font id="muliregular" horiz-adv-x="1190" >
<font-face units-per-em="2048" ascent="1638" descent="-410" />
<missing-glyph horiz-adv-x="599" />
<glyph horiz-adv-x="2048" />
<glyph horiz-adv-x="2048" />
<glyph unicode="&#xd;" horiz-adv-x="0" />
<glyph unicode=" "  horiz-adv-x="599" />
<glyph unicode="&#x09;" horiz-adv-x="599" />
<glyph unicode="&#xa0;" horiz-adv-x="599" />
<glyph unicode="!" horiz-adv-x="737" d="M260 -23v206h214v-206h-214zM271 1451h195l-40 -1078h-115z" />
<glyph unicode="&#x22;" horiz-adv-x="720" d="M114 1451h183l-16 -462h-131zM403 1451h184l-18 -462h-130z" />
<glyph unicode="#" horiz-adv-x="1242" d="M42 485l11 126h265q12 70 24.5 137.5t25.5 137.5h-261l13 124h270l79 410h146l-77 -410h261l76 410h146l-78 -410h241l-14 -124h-250l-51 -275h252l-14 -126h-260l-83 -425h-145l80 425h-261l-82 -425h-146l84 425h-252zM460 611h264l51 275h-261z" />
<glyph unicode="$" d="M137 1047q0 79 33.5 147.5t88.5 120.5t126.5 84t148.5 38l-4 138h124l3 -136q100 -2 188 -30.5t152 -82.5l-49 -128q-57 51 -131 74.5t-159 26.5l-2 -529q105 -41 184 -80t132.5 -85.5t80.5 -105t27 -138.5q0 -83 -34 -149t-92 -113t-135 -75t-163 -35l3 -161h-123 l-4 156q-91 2 -173 26.5t-157 78.5l49 134q64 -43 136.5 -68t143.5 -28l3 521q-81 36 -153 71.5t-126 80t-86 104t-32 143.5zM326 1059q0 -51 15.5 -88.5t43 -65.5t65 -49t82.5 -38l2 475q-47 -6 -85 -26t-65.5 -50.5t-42.5 -71t-15 -86.5zM654 131q50 7 95 25t78.5 46.5 t53.5 67.5t20 88q0 47 -18 83t-50.5 65t-77 53t-97.5 46z" />
<glyph unicode="%" horiz-adv-x="1985" d="M168 1064q0 81 25 150.5t71.5 121.5t112.5 81.5t149 29.5q84 0 149.5 -28.5t110.5 -79t68 -120t23 -151.5q0 -80 -25 -149.5t-71.5 -121t-112.5 -81.5t-148 -30q-84 0 -149.5 29t-110.5 80t-68.5 120t-23.5 149zM312 1065q0 -55 13 -103.5t39 -84.5t66 -57t94 -21 t93.5 22.5t65.5 60t38.5 86t12.5 101.5q0 55 -12.5 103.5t-38.5 84.5t-65.5 57t-92.5 21q-55 0 -95 -22.5t-66.5 -60t-39 -86.5t-12.5 -101zM440 -5l904 1441h155l-905 -1441h-154zM1097 351q0 81 25 151t71.5 121.5t112.5 81.5t149 30q84 0 149.5 -28.5t110.5 -79t68 -120 t23 -151.5q0 -80 -25 -149.5t-71.5 -121.5t-112.5 -82t-148 -30q-83 0 -148.5 29t-110.5 80t-69 120t-24 149zM1241 350q0 -54 12.5 -102t39 -84t66 -57t93.5 -21t94 22.5t65.5 60.5t38 86.5t12.5 101.5q0 55 -12.5 103t-38 84t-64.5 57t-93 21q-56 0 -96 -23t-66 -61 t-38.5 -87t-12.5 -101z" />
<glyph unicode="&#x26;" horiz-adv-x="1647" d="M115 402q0 84 32.5 150t85.5 120t121 98t140 82l-15 15q-33 33 -65.5 67t-58 71.5t-41 81t-15.5 95.5q0 72 28.5 126.5t78 91t115 55t140.5 18.5q70 0 137.5 -17t120 -52.5t85 -89t32.5 -126.5q0 -60 -25.5 -112.5t-68 -98t-98 -84.5t-115.5 -71l410 -413q34 52 62 116 t48 132.5t31 139.5t11 138q0 38 -3 60t-5 37h173q7 -94 -3.5 -193t-36.5 -195t-66.5 -185t-94.5 -164q45 -46 83.5 -79.5t79.5 -58t89 -41.5t111 -30l-132 -98q-47 7 -85.5 22.5t-75.5 40t-75 58t-84 77.5q-45 -44 -98 -83t-115.5 -68t-135 -45.5t-156.5 -16.5 q-117 0 -216.5 29t-173 84t-115 134.5t-41.5 181.5zM295 406q0 -63 27 -116t75 -91.5t114.5 -60.5t146.5 -22q68 0 125 13.5t105.5 37t90 55.5t79.5 69q-2 1 -22.5 21t-53.5 53t-74.5 74t-84.5 84l-229 227q-57 -29 -111 -62t-96 -74t-67 -92.5t-25 -115.5zM472 1178 q0 -38 11 -72t31.5 -65.5t48.5 -61.5t62 -61q45 24 88.5 52t77 60t54 68.5t20.5 79.5t-17.5 74t-45.5 50.5t-63 28.5t-70 9q-41 0 -76.5 -10t-62.5 -30.5t-42.5 -51t-15.5 -70.5z" />
<glyph unicode="'" horiz-adv-x="554" d="M176 1451h184l-18 -462h-130z" />
<glyph unicode="(" horiz-adv-x="628" d="M153 587q0 120 20 232.5t56 220t87 210t114 201.5h148q-126 -201 -194 -417t-68 -444q0 -105 18.5 -215.5t53 -220t83 -214.5t108.5 -199h-146q-58 89 -109 189t-89 208t-60 221t-22 228z" />
<glyph unicode=")" horiz-adv-x="628" d="M52 1451h147q59 -92 110.5 -193.5t89 -210t59 -221.5t21.5 -228q0 -121 -20 -233.5t-56 -219t-86.5 -207.5t-111.5 -197h-149q57 91 104.5 192.5t82 210t53.5 224.5t19 236q0 100 -17.5 208t-51 217t-82.5 216t-112 206z" />
<glyph unicode="*" horiz-adv-x="1065" d="M175 1136l21 135l284 -123q-10 75 -20.5 151.5t-20.5 151.5h149l-7 -298l235 121l64 -125l-263 -88l201 -251l-126 -73l-158 266l-153 -258l-124 75l191 238z" />
<glyph unicode="+" horiz-adv-x="1458" d="M198 624h448l3 423h150l-2 -423h448l1 -139h-448l-3 -423h-151l2 423h-446z" />
<glyph unicode="," horiz-adv-x="540" d="M78 -256l107 463h187l-163 -463h-131z" />
<glyph unicode="-" horiz-adv-x="728" d="M79 626h571l1 -137h-571z" />
<glyph unicode="." horiz-adv-x="540" d="M159 -11v210h217v-210h-217z" />
<glyph unicode="/" horiz-adv-x="717" d="M-47 -215l637 1666h167l-641 -1666h-163z" />
<glyph unicode="0" d="M88 715q0 171 32.5 308t97 232.5t159 146.5t219.5 51q142 0 238.5 -56.5t155.5 -157.5t84 -240.5t25 -304.5q0 -162 -33 -294.5t-98 -226t-160.5 -145t-221.5 -51.5q-133 0 -227.5 54.5t-154.5 152.5t-88 233.5t-28 297.5zM266 727q0 -70 5 -142t18.5 -139.5t37 -127 t60 -104t87.5 -70t120 -25.5q82 0 142.5 42.5t100 118.5t59 181.5t19.5 231.5q0 68 -4.5 140t-17.5 141t-35.5 130.5t-58.5 107.5t-87 73t-120 27q-83 0 -144 -43t-101.5 -120.5t-60.5 -185t-20 -236.5z" />
<glyph unicode="1" d="M273 1113v156q77 27 148 63.5t138 78.5l165 27v-1295h217v-143h-608v143h219v1102q-67 -38 -134.5 -70t-144.5 -62z" />
<glyph unicode="2" d="M98 147q70 67 154 144t168 158.5t163 165.5t140 164.5t97.5 154.5t36.5 137q0 52 -20 95.5t-57.5 74.5t-90 48.5t-116.5 17.5q-58 0 -110.5 -16t-96.5 -45.5t-78.5 -72t-57.5 -95.5l-97 97q24 64 67.5 114.5t102.5 86t130 54t151 18.5q97 0 179 -26t142 -74t93.5 -116.5 t33.5 -153.5q0 -90 -44.5 -183t-119 -188t-173 -192t-206.5 -196q-47 -43 -91.5 -84.5t-92.5 -89.5h730v-145h-936z" />
<glyph unicode="3" d="M108 223l83 101q19 -50 52 -88t77 -64t97 -39.5t111 -13.5q72 0 134.5 19t109 54t73 86t26.5 116q0 75 -28.5 128t-81.5 86.5t-129 48.5t-170 15q-17 0 -38.5 -0.5t-38.5 -1.5l-2 144q15 -1 32 -1h31q88 0 158.5 13.5t119.5 45.5t75.5 84t26.5 129q0 57 -21 98.5 t-58.5 68.5t-89.5 40.5t-113 13.5q-106 0 -189 -44t-136 -134l-98 89q22 54 64 97t98.5 73t124.5 46t142 16q88 0 171 -23.5t147 -69.5t103 -114t39 -156q0 -66 -21 -120.5t-59 -97.5t-91 -73.5t-118 -48.5l10 -2q70 -14 128.5 -44t100.5 -75t65.5 -103.5t23.5 -130.5 q0 -96 -42.5 -173t-115.5 -130.5t-169 -82t-203 -28.5q-78 0 -146.5 15.5t-122.5 46.5t-91 77t-51 107z" />
<glyph unicode="4" horiz-adv-x="1189" d="M25 351v124l665 945h208v-937h214v-132h-214v-351h-172v351h-701zM196 483h530v809l-88 -146z" />
<glyph unicode="5" d="M147 173l81 116q60 -87 142 -128.5t176 -41.5q83 0 147.5 26.5t108.5 72t66.5 106t22.5 128.5q0 64 -19.5 119.5t-57 97t-93.5 65.5t-128 24q-70 0 -126 -26t-88 -74l-176 -6v773h791v-145h-628l-14 -441q57 33 117.5 49.5t129.5 16.5q109 0 196 -34.5t147.5 -95.5 t93 -144.5t32.5 -181.5q0 -100 -36 -186t-103 -149.5t-163.5 -100t-217.5 -36.5q-60 0 -118 11.5t-110 35.5t-96 61t-77 88z" />
<glyph unicode="6" d="M92 678q0 159 37.5 300t111 246.5t182 167t251.5 61.5q109 0 193 -35.5t132 -104.5l-55 -112q-50 54 -117.5 82.5t-151.5 28.5q-69 0 -126 -23t-102 -63.5t-78 -96.5t-54.5 -121t-32 -137.5t-10.5 -146.5q27 49 65.5 85t86.5 59.5t104 34.5t117 11q103 0 187 -32t143 -92 t91 -145t32 -191q0 -102 -34.5 -189t-97.5 -151t-153 -100.5t-201 -36.5q-131 0 -228.5 51t-162.5 143.5t-97 221.5t-32 285zM290 501q0 -75 20 -144t60.5 -122t101.5 -84.5t142 -31.5q70 0 126.5 25t96.5 69.5t61.5 104.5t21.5 130t-18 130t-55.5 104.5t-94 70t-132.5 25.5 q-60 0 -112 -15.5t-94 -43.5t-73 -67t-49 -86q-1 -18 -1.5 -29t-0.5 -18v-11v-7z" />
<glyph unicode="7" horiz-adv-x="1189" d="M95 1275v145h970v-91l-586 -1329h-186l580 1275h-778z" />
<glyph unicode="8" d="M93 367q0 137 81 235.5t235 144.5q-133 42 -207 129.5t-74 214.5q0 85 36 152.5t98 114t145.5 71t179.5 24.5t179.5 -24.5t145.5 -71t98 -114t36 -152.5q0 -127 -74 -214.5t-207 -129.5q154 -46 235 -144.5t81 -235.5q0 -94 -40.5 -167t-109 -122.5t-158 -75 t-186.5 -25.5q-98 0 -187 25.5t-157.5 75t-109 122.5t-40.5 167zM270 380q0 -64 23.5 -112.5t65.5 -81.5t100.5 -50t127.5 -17t127.5 17t100.5 50t65.5 81.5t23.5 112.5q0 60 -23.5 108.5t-65.5 85t-100.5 61t-127.5 38.5q-69 -14 -127.5 -38.5t-100.5 -61t-65.5 -85 t-23.5 -108.5zM300 1086q0 -109 74.5 -174.5t212.5 -91.5q138 26 212.5 91.5t74.5 174.5q0 56 -23 99t-62.5 72.5t-91.5 44.5t-110 15t-110 -15t-91.5 -44.5t-62.5 -72.5t-23 -99z" />
<glyph unicode="9" d="M88 984q0 99 34.5 185t98.5 149t155.5 99t204.5 36q122 0 217.5 -45.5t161 -134t99.5 -218t34 -297.5q0 -173 -38 -316.5t-112 -247t-182 -160.5t-247 -57q-109 0 -193.5 37.5t-137.5 106.5l54 113q53 -57 123 -86t157 -29q100 0 175 48t125.5 128.5t75.5 186.5t25 223v2 q-57 -90 -152.5 -132t-220.5 -42q-105 0 -189.5 33.5t-144 93t-91.5 142.5t-32 182zM264 989q0 -67 18.5 -125t56.5 -100.5t96 -66.5t137 -24q60 0 112.5 16t95.5 45.5t74.5 70t48.5 89.5q-1 7 -1 17v18q0 70 -18.5 138.5t-58.5 123t-102.5 88t-149.5 33.5q-70 0 -127 -24.5 t-97.5 -68t-62.5 -102.5t-22 -128z" />
<glyph unicode=":" horiz-adv-x="540" d="M159 -11v210h217v-210h-217zM159 841v210h217v-210h-217z" />
<glyph unicode=";" horiz-adv-x="540" d="M100 -256l106 463h188l-163 -463h-131zM159 841v210h217v-210h-217z" />
<glyph unicode="&#x3c;" horiz-adv-x="1458" d="M218 508l1 87l1007 472l1 -153l-789 -362l784 -352l1 -152z" />
<glyph unicode="=" horiz-adv-x="1458" d="M197 689v138h1049v-138h-1049zM198 283v137h1049v-137h-1049z" />
<glyph unicode="&#x3e;" horiz-adv-x="1458" d="M215 58v154l789 343l-784 371v152l1005 -484v-89z" />
<glyph unicode="?" horiz-adv-x="1032" d="M183 1267v146q72 35 145 50t136 15q92 0 171.5 -21.5t138 -64.5t92 -107.5t33.5 -151.5q0 -64 -29.5 -121t-73.5 -110.5t-95 -103t-95 -97t-73.5 -94.5t-29.5 -94q0 -23 2.5 -48t5.5 -47q4 -26 9 -50h-164q-3 30 -5 60q-2 26 -3.5 53.5t-1.5 48.5q0 61 28.5 112t71 97 t92.5 89.5t92.5 89.5t71 96.5t28.5 110.5q0 57 -24 97t-64 65.5t-91.5 37t-106.5 11.5q-69 0 -135 -17.5t-126 -51.5zM329 -11v210h217v-210h-217z" />
<glyph unicode="@" horiz-adv-x="1895" d="M130 679q0 112 29.5 215t84 191.5t131 160.5t170 123t201 79t225.5 28q110 0 211.5 -23t189 -66t159.5 -104t122.5 -137t78.5 -165.5t28 -189.5q0 -119 -41 -222t-107.5 -179.5t-151.5 -120.5t-172 -44q-88 0 -145 37t-72 122q-52 -64 -118.5 -95.5t-138.5 -31.5 q-60 0 -117 22.5t-101 67t-71 110.5t-27 153q0 68 18.5 134t51.5 124.5t78 108t98.5 85.5t112.5 56t121 20q78 0 138.5 -31t90.5 -85l18 85h146l-57 -250q-40 -173 -64.5 -276t-23.5 -147q0 -37 18.5 -60.5t64.5 -23.5q59 0 113 37t95 98.5t65.5 142.5t24.5 168 q0 123 -47.5 226t-132 177.5t-202.5 116t-259 41.5q-148 0 -273.5 -53.5t-217 -146t-143 -216.5t-51.5 -264q0 -142 49.5 -263.5t140.5 -211t218 -140t283 -50.5q147 0 279.5 46t234.5 134l80 -70q-50 -54 -116.5 -96.5t-143.5 -72.5t-163 -46t-176 -16q-182 0 -335.5 60 t-265 165.5t-174 249.5t-62.5 313zM655 582q0 -44 11.5 -80t34 -62t55.5 -40.5t75 -14.5q66 0 123 37.5t98.5 99t65 139.5t23.5 160q0 42 -8.5 76.5t-28 59t-50 37.5t-74.5 13q-71 0 -131 -39.5t-103 -101.5t-67 -137t-24 -147z" />
<glyph unicode="A" horiz-adv-x="1425" d="M13 0l604 1456h185l605 -1456h-191l-163 397h-698l-156 -397h-186zM410 545h584l-234 605q-8 19 -17 44.5t-17 48.5q-10 27 -19 55q-10 -32 -20 -61q-8 -25 -17.5 -49.5t-14.5 -38.5z" />
<glyph unicode="B" horiz-adv-x="1352" d="M202 0v1456h290q81 0 156 -2t144 -10q76 -9 140.5 -37t111.5 -71.5t73.5 -102t26.5 -128.5q0 -60 -19.5 -114t-54.5 -97.5t-84 -75.5t-107 -49q2 0 4.5 -0.5t4.5 -0.5q72 -15 132 -45.5t103 -77t66.5 -107t23.5 -135.5q0 -80 -30.5 -153t-91.5 -128.5t-151.5 -88.5 t-210.5 -33h-527zM374 148h283q179 0 276.5 63t97.5 195q0 79 -28 132t-83 84.5t-135 44.5t-185 13h-226v-532zM374 828h196q73 0 143.5 11.5t126 39.5t89.5 76t34 122q0 73 -29.5 118.5t-80.5 70.5t-120.5 33.5t-150.5 8.5h-208v-480z" />
<glyph unicode="C" horiz-adv-x="1399" d="M108 713q0 103 21.5 200t63 182.5t102.5 157t139.5 122.5t173.5 79.5t206 28.5q136 0 243 -36.5t198 -117.5l-65 -110q-153 115 -357 115q-92 0 -168 -24.5t-136.5 -68t-105 -102.5t-74 -128t-44 -145.5t-14.5 -153.5q0 -118 31 -224.5t95 -187t162 -128t232 -47.5 q123 0 231.5 35.5t190.5 107.5l58 -141q-93 -75 -220 -112.5t-286 -37.5q-165 0 -291 58t-212 158.5t-130 234t-44 285.5z" />
<glyph unicode="D" horiz-adv-x="1546" d="M193 0v1456h315q130 0 249 -15t221.5 -49t186 -89.5t142.5 -137t91 -191t32 -250.5q0 -166 -55.5 -299.5t-161 -228t-258 -145.5t-345.5 -51h-417zM365 148h261q159 0 276 42.5t194 118.5t114.5 181.5t37.5 230.5q0 164 -46 276.5t-136.5 181.5t-225 99t-311.5 30h-164 v-1160z" />
<glyph unicode="E" horiz-adv-x="1218" d="M205 0v1456h867v-148h-695v-488h657v-148h-657v-524h725v-148h-897z" />
<glyph unicode="F" horiz-adv-x="1137" d="M197 0v1456h843v-148h-671v-493h637v-148h-637v-667h-172z" />
<glyph unicode="G" horiz-adv-x="1530" d="M116 701q0 107 22.5 206.5t66 186.5t107.5 158.5t146.5 123t183 79.5t218.5 28q72 0 140 -11t128 -33.5t110.5 -57t88.5 -80.5l-69 -105q-37 36 -82.5 62t-97 43t-108 25t-114.5 8q-139 0 -244.5 -52t-176 -138.5t-106 -198t-35.5 -231.5q0 -131 35 -239.5t106 -186 t177.5 -120.5t250.5 -43q85 0 165 14t152 43v426h-361v149h533v-676q-121 -57 -247.5 -80.5t-255.5 -23.5q-180 0 -317 52t-229.5 147t-139.5 228.5t-47 296.5z" />
<glyph unicode="H" horiz-adv-x="1555" d="M202 0v1456h172v-634h802v634h171v-1456h-171v674h-802v-674h-172z" />
<glyph unicode="I" horiz-adv-x="591" d="M210 0v1456h172v-1456h-172z" />
<glyph unicode="J" horiz-adv-x="939" d="M71 81l51 116q44 -34 94 -53t110 -19q66 0 114.5 27.5t80 76.5t47 115t15.5 144v968h172v-957q0 -127 -30 -224.5t-86 -163.5t-136 -100t-182 -34q-78 0 -139.5 27.5t-110.5 76.5z" />
<glyph unicode="K" horiz-adv-x="1294" d="M210 0v1456h172v-660l88 91l556 569h216l-689 -678l743 -778h-236l-594 634l-84 91v-725h-172z" />
<glyph unicode="L" horiz-adv-x="1120" d="M202 0v1456h172v-1308h697l2 -148h-871z" />
<glyph unicode="M" horiz-adv-x="2002" d="M200 0v1456h238l475 -1040l84 -204h2l85 207l478 1037h234v-1456h-168v934v317l-51 -121l-517 -1130h-126l-504 1108l-60 160v-337v-931h-170z" />
<glyph unicode="N" horiz-adv-x="1594" d="M193 0v1456h206l747 -1114l78 -127v233v1008h171v-1456h-208l-750 1113l-72 124v-190v-1047h-172z" />
<glyph unicode="O" horiz-adv-x="1663" d="M114 729q0 164 49 302t142 238.5t227 157t305 56.5q163 0 294 -54t223 -153t141 -238.5t49 -311.5q0 -165 -48.5 -302.5t-140.5 -237t-225 -154.5t-301 -55q-167 0 -299.5 53t-225 151t-141.5 237t-49 311zM298 725q0 -126 33.5 -235.5t100 -190.5t165.5 -127.5 t230 -46.5q132 0 231.5 46.5t165.5 128t99 193t33 241.5q0 127 -32.5 237t-98.5 191t-164.5 127t-230.5 46q-131 0 -230 -50t-166.5 -134t-101.5 -194.5t-34 -231.5z" />
<glyph unicode="P" horiz-adv-x="1274" d="M203 0v1456h341q85 0 166.5 -7.5t154.5 -26t134.5 -50t106 -80t69.5 -115.5t25 -157q0 -114 -49.5 -196t-133 -134.5t-192.5 -77.5t-228 -25h-222v-587h-172zM375 736h261q82 0 152 16.5t120.5 51t79 87.5t28.5 127q0 87 -31.5 143.5t-88 89t-135 45t-173.5 12.5h-213 v-572z" />
<glyph unicode="Q" horiz-adv-x="1664" d="M119 747q0 162 50 297.5t143.5 233t226.5 151.5t298 54q163 0 294 -54t222.5 -152.5t140.5 -235.5t49 -303q0 -132 -32.5 -254t-98 -220.5t-162.5 -167t-226 -94.5q40 -16 94 -25.5t110 -14t109.5 -5.5t91.5 -1q37 0 82 4.5t87 11.5l3 -154q-42 -5 -86 -7.5t-82 -2.5 q-140 0 -235 14t-162 38t-114.5 55.5t-92.5 66.5q-161 0 -292 54t-224 154t-143.5 241.5t-50.5 315.5zM298 724q0 -125 33.5 -234t100 -190t165.5 -128t230 -47q132 0 231 46.5t165 128t99 193t33 241.5q0 127 -32.5 236.5t-98 190.5t-164 127t-230.5 46q-131 0 -230.5 -50 t-166.5 -134t-101 -194.5t-34 -231.5z" />
<glyph unicode="R" horiz-adv-x="1377" d="M205 0v1456h356q59 0 129.5 -2t141.5 -13t137 -34.5t117.5 -65.5t82 -107.5t30.5 -159.5q0 -69 -22 -127t-63 -104t-98.5 -78t-127.5 -50h1q61 -20 100.5 -59t71.5 -100.5t63 -146t76 -195.5l87 -214h-188l-153 419q-25 68 -49.5 113t-58 71.5t-79 37.5t-112.5 11h-270 v-652h-172zM377 799h266q67 0 134 12t120.5 41t86.5 79t33 127q0 75 -27.5 123.5t-76.5 76.5t-115 39t-144 11h-277v-509z" />
<glyph unicode="S" horiz-adv-x="1244" d="M137 161l78 110q33 -40 77.5 -67.5t94 -45t102 -25.5t102.5 -8q79 0 145 15.5t113.5 46t74 75t26.5 103.5q0 66 -35 112.5t-91.5 82.5t-129.5 64.5t-148.5 58.5t-148.5 64.5t-129.5 82t-91.5 112t-35 153.5q0 96 45 168.5t119 121t168 73.5t193 25q57 0 117 -7t115.5 -25 t103 -47.5t79.5 -74.5l-83 -112q-30 33 -68.5 55.5t-82 36t-89.5 19.5t-91 6q-61 0 -122 -12.5t-110 -40t-80 -71t-31 -105.5q0 -64 35 -110.5t92 -82.5t129.5 -66t148.5 -61t148.5 -67t129.5 -85t92 -114.5t35 -154.5q0 -71 -23 -127.5t-63 -99.5t-94 -73.5t-116.5 -49.5 t-130.5 -28t-135 -9q-73 0 -139 13t-122 37t-100.5 58t-73.5 76z" />
<glyph unicode="T" horiz-adv-x="1174" d="M32 1308v148h1113v-148h-472v-1308h-172v1308h-469z" />
<glyph unicode="U" horiz-adv-x="1532" d="M191 541v915h172v-910q0 -204 101 -312.5t299 -108.5q91 0 165.5 28.5t127 82t81 130.5t28.5 173v917h172l-1 -905q-1 -135 -37.5 -242t-109 -180.5t-181 -112.5t-252.5 -39q-156 0 -264 41t-175 115.5t-96.5 178.5t-29.5 229z" />
<glyph unicode="V" horiz-adv-x="1336" d="M9 1456h192l423 -1149l46 -141l48 142l427 1148h179l-565 -1456h-189z" />
<glyph unicode="W" horiz-adv-x="2103" d="M21 1456h186l310 -1107l38 -160l44 145l368 1122h181l359 -1111l46 -155l36 142l311 1124h180l-423 -1456h-212l-330 1026l-63 221l-69 -221l-326 -1026h-213z" />
<glyph unicode="X" horiz-adv-x="1304" d="M11 0l537 741l-501 715h216l329 -497l70 -105l72 105l345 497h196l-511 -714l521 -742h-213l-362 538l-64 92l-62 -93l-369 -537h-204z" />
<glyph unicode="Y" horiz-adv-x="1266" d="M10 1456h191l431 -729l435 729h191l-543 -871v-585h-172v582z" />
<glyph unicode="Z" horiz-adv-x="1222" d="M58 0v92l864 1216h-832v148h1064v-88l-868 -1220h860v-148h-1088z" />
<glyph unicode="[" horiz-adv-x="628" d="M191 -259v1710h356v-122h-193v-1466h194v-122h-357z" />
<glyph unicode="\" horiz-adv-x="706" d="M-70 1451h168l685 -1570h-166z" />
<glyph unicode="]" horiz-adv-x="628" d="M78 1451h364v-1710h-355v122h191v1466h-190z" />
<glyph unicode="^" horiz-adv-x="1457" d="M184 550l481 882h101l489 -882h-155l-343 625l-43 85l-39 -84l-335 -626h-156z" />
<glyph unicode="_" horiz-adv-x="998" d="M-5 -145h1002l1 -128h-1002z" />
<glyph unicode="`" horiz-adv-x="593" d="M1 1492h214l247 -320h-129z" />
<glyph unicode="a" horiz-adv-x="1244" d="M89 524q0 99 30.5 194t92 169t154 119t216.5 45q63 0 115 -11.5t96 -32.5t81 -52t69 -70l6 141h163l-4 -253v-773h-165l2 144q-24 -32 -60.5 -62.5t-82.5 -53.5t-101.5 -37t-116.5 -14q-86 0 -156 22.5t-125 62t-95.5 92.5t-66.5 114t-39 126.5t-13 129.5zM251 516 q0 -46 6.5 -94.5t21.5 -93.5t41 -85t64.5 -69.5t92 -47t124.5 -17.5q70 0 131.5 28.5t108 84t74 138t28.5 190.5q0 81 -24.5 148t-69.5 116t-109.5 76t-144.5 27q-61 0 -110 -16.5t-87 -45.5t-66 -68t-46 -83.5t-26.5 -92.5t-8.5 -95z" />
<glyph unicode="b" horiz-adv-x="1239" d="M150 0q1 68 3 123q1 24 1.5 47.5t1 43.5t1 35t0.5 21v1222h165v-611q63 87 158.5 128.5t207.5 41.5q119 0 204 -43t139 -115t79.5 -167.5t25.5 -200.5q0 -112 -29.5 -211.5t-88 -174.5t-146.5 -118.5t-204 -43.5q-109 0 -196 40.5t-150 119.5l-4 -137h-168zM322 515 q0 -87 16.5 -157t55 -119.5t100.5 -76.5t153 -27q90 0 152 35.5t99.5 93.5t54 132.5t16.5 153.5q0 76 -22 143t-63.5 116.5t-100.5 78.5t-133 29q-81 0 -142.5 -32.5t-103 -88t-62 -128.5t-20.5 -153z" />
<glyph unicode="c" horiz-adv-x="1046" d="M92 503q0 112 34 212t99 174.5t160 118t217 43.5q121 0 212 -38t142 -105l-75 -107q-48 60 -117 88t-147 28q-83 0 -148 -32t-110.5 -87.5t-69.5 -130t-24 -159.5q0 -84 21 -157t64 -127t109 -84.5t156 -30.5q169 0 303 116l46 -138q-73 -58 -163 -84t-199 -26 q-127 0 -222.5 41.5t-159.5 113t-96 167.5t-32 204z" />
<glyph unicode="d" horiz-adv-x="1240" d="M93 506q0 108 29.5 206.5t89 174t148 120t205.5 44.5q111 0 199.5 -42t146.5 -121v604h165v-1236q1 -60 2.5 -129t3.5 -127h-167l-4 147q-65 -92 -150.5 -131t-203.5 -39q-119 0 -206.5 41.5t-144.5 113.5t-85 168.5t-28 205.5zM266 507q0 -78 16.5 -150t54 -127t98 -88 t148.5 -33q81 0 142.5 31.5t103 89t62.5 138.5t21 180q0 83 -22.5 151t-64.5 116.5t-101 75t-132 26.5q-85 0 -146.5 -33t-101.5 -89t-59 -130.5t-19 -157.5z" />
<glyph unicode="e" horiz-adv-x="1173" d="M115 510q0 111 34 209t99 172t158.5 117t213.5 43q118 0 205 -38.5t143 -106t83.5 -160.5t27.5 -202q0 -11 -0.5 -25.5t-1.5 -26.5h-787l3 -45q6 -75 30.5 -137t67.5 -107t104.5 -69.5t140.5 -24.5q106 0 194 37t158 106l51 -137q-83 -72 -184 -105t-229 -33 q-121 0 -216 39.5t-160.5 110t-100 168.5t-34.5 215zM297 609h609l-1 14q-5 65 -25.5 119t-56.5 93t-87.5 60.5t-116.5 21.5q-70 0 -126 -24.5t-96.5 -66.5t-65.5 -98t-34 -119z" />
<glyph unicode="f" horiz-adv-x="702" d="M45 1026h201l2 112q1 81 16 150t49 119t90.5 78.5t141.5 28.5q21 0 38 -1.5t32.5 -4.5t31.5 -7t34 -8l2 -129q-20 8 -50.5 11.5t-59.5 3.5q-51 0 -82.5 -14t-48.5 -41.5t-23.5 -68t-6.5 -93.5l-1 -136h247l1 -107h-248v-919h-165v919h-200z" />
<glyph unicode="g" horiz-adv-x="1241" d="M91 511q0 109 30 207.5t90 172t150.5 117t210.5 43.5q117 0 198.5 -42.5t141.5 -123.5q0 17 1 41.5t2 46.5q1 26 3 53h165q-2 -48 -3 -95q-2 -40 -2.5 -83t-0.5 -75v-626q0 -68 -8 -136.5t-29 -131.5t-58 -118t-95.5 -95.5t-141.5 -64t-195 -23.5q-100 0 -192.5 20 t-175.5 62l19 153q79 -49 166 -72t171 -23q88 0 157.5 19.5t117.5 60t73.5 103t25.5 148.5v127q-60 -88 -151.5 -132t-200.5 -44q-111 0 -198 37t-147 104t-92 161t-32 209zM265 515q0 -87 16.5 -157t55 -119.5t100.5 -76.5t153 -27q90 0 152 35.5t99.5 93.5t54 132.5 t16.5 153.5q0 76 -22 143t-63.5 116.5t-100.5 78.5t-133 29q-81 0 -142.5 -32.5t-103 -88t-62 -128.5t-20.5 -153z" />
<glyph unicode="h" horiz-adv-x="1217" d="M169 0v1492h165v-602q63 85 147 123t198 38q112 0 184.5 -36.5t115 -95.5t59 -133t16.5 -150v-636h-165v626q0 64 -12.5 117.5t-42 92t-79 60t-122.5 21.5q-71 0 -126.5 -26.5t-93.5 -72t-58.5 -106t-20.5 -127.5v-585h-165z" />
<glyph unicode="i" horiz-adv-x="503" d="M167 0v1026h165v-1026h-165zM175 1307v155h153v-155h-153z" />
<glyph unicode="j" horiz-adv-x="503" d="M-102 -273q27 -5 47.5 -7.5t36.5 -2.5q97 0 145 75.5t48 238.5v995h165v-920v-25q0 -45 -2 -93q-4 -61 -15 -120.5t-32 -113.5t-56.5 -94.5t-88 -64.5t-125.5 -24q-58 0 -122 13zM174 1307v155h153v-155h-153z" />
<glyph unicode="k" horiz-adv-x="1082" d="M178 0v1492h165v-905l466 439h225l-530 -484q141 -135 284 -271t284 -271h-219l-510 501v-501h-165z" />
<glyph unicode="l" horiz-adv-x="503" d="M168 0v1492h165v-1492h-165z" />
<glyph unicode="m" horiz-adv-x="1901" d="M163 1026h167l4 -138q60 84 142.5 123.5t188.5 39.5q58 0 109.5 -14.5t94 -40.5t74.5 -63.5t51 -83.5q58 105 149 153.5t223 48.5q109 0 180 -35.5t112.5 -93.5t58 -132.5t16.5 -153.5v-636h-165v558q0 64 -7.5 128t-33 115.5t-75.5 83.5t-135 32q-67 0 -119.5 -27.5 t-89 -73.5t-55.5 -105.5t-19 -123.5v-587h-165v635q0 58 -14 109.5t-44.5 89.5t-78.5 60.5t-116 22.5t-120.5 -26.5t-88.5 -71.5t-54.5 -105t-18.5 -127v-587h-165v761q0 66 -1.5 134t-4.5 131z" />
<glyph unicode="n" horiz-adv-x="1217" d="M162 1026h167l4 -142q60 85 144.5 126t199.5 41q112 0 185 -37t115.5 -103.5t59 -158.5t16.5 -202v-550h-165v531q0 87 -7.5 158.5t-32 122t-72.5 78t-129 27.5q-75 0 -133 -29t-98 -70t-61.5 -86.5t-21.5 -79.5v-652h-165v779q0 46 -1 90.5t-2 79.5q-2 40 -3 77z" />
<glyph unicode="o" horiz-adv-x="1238" d="M90 511q0 111 35 209.5t102.5 172t166 116t226.5 42.5q129 0 226.5 -42t162.5 -115t98 -171t33 -210q0 -108 -34.5 -205.5t-101 -171t-164.5 -116.5t-224 -43q-128 0 -226 42t-164.5 114t-101 169.5t-34.5 208.5zM263 509q0 -80 22.5 -152t67 -127.5t111.5 -88t156 -32.5 q88 0 153 33t108 88.5t64 128t21 152.5q0 82 -21 156t-64 129.5t-109 88t-156 32.5q-87 0 -153 -33.5t-110.5 -90t-67 -130.5t-22.5 -154z" />
<glyph unicode="p" horiz-adv-x="1239" d="M151 1026h167l5 -146q63 85 151.5 128t193.5 43q121 0 209.5 -42t146.5 -113.5t86.5 -166.5t28.5 -202q0 -108 -29.5 -207.5t-88 -175.5t-147 -121.5t-206.5 -45.5q-216 0 -345 158v-562h-164v1185q0 21 -0.5 51.5t-1.5 66.5t-2.5 74.5t-3.5 75.5zM323 494 q0 -83 21 -153.5t61.5 -122t100.5 -80.5t138 -29q84 0 144.5 34t99 91t57 131.5t18.5 155.5q0 76 -16 147.5t-52.5 127t-96.5 88.5t-148 33q-92 0 -154.5 -35t-101 -93.5t-55 -135t-16.5 -159.5z" />
<glyph unicode="q" horiz-adv-x="1240" d="M93 506q0 109 30 207.5t89 173.5t148 119.5t207 44.5q112 0 200.5 -40t145.5 -113l5 128h167q-4 -58 -5.5 -116t-1.5 -97v-1239h-165v574q-66 -88 -159.5 -129.5t-208.5 -41.5q-112 0 -196.5 41t-141.5 112.5t-85.5 168t-28.5 207.5zM266 507q0 -80 18 -152.5t56 -127 t98 -86.5t144 -32q96 0 159.5 37.5t102 99t54 139t15.5 158.5q0 82 -21.5 151t-62 118.5t-100.5 77t-136 27.5q-84 0 -146 -32.5t-102 -88t-59.5 -130.5t-19.5 -159z" />
<glyph unicode="r" horiz-adv-x="737" d="M161 1026h165l6 -155q42 85 114 132t160 47q58 0 108 -12l2 -155q-21 11 -51 17.5t-64 6.5q-60 0 -110 -23.5t-85 -67.5t-54.5 -107t-19.5 -141v-568h-165v779q0 63 -2 126t-4 121z" />
<glyph unicode="s" horiz-adv-x="1007" d="M117 771q0 71 32.5 124t85.5 87.5t120.5 51.5t137.5 17q103 0 190.5 -19.5t148.5 -67.5l-42 -117q-54 37 -130 53.5t-158 16.5q-46 0 -85 -10t-67.5 -28.5t-45 -45t-16.5 -59.5q0 -35 17 -60t46 -43.5t68 -33t83 -27.5q40 -12 85.5 -25t90.5 -30.5t86 -41t72.5 -55.5 t50 -75t18.5 -99q0 -78 -36 -135.5t-95 -95.5t-135 -57t-156 -19q-53 0 -105 6t-99.5 20t-88 36t-69.5 55l44 135q27 -32 63 -55t77.5 -37.5t85.5 -21t86 -6.5q56 0 103 10.5t81.5 31t54 51t19.5 70.5q0 46 -22 74.5t-61 49t-93 36t-117 35.5q-75 24 -135.5 50.5 t-102.5 61.5t-64.5 81.5t-22.5 110.5z" />
<glyph unicode="t" horiz-adv-x="729" d="M40 919v107h203l5 272l160 47v-319h256v-107h-256v-613q0 -34 2 -69.5t13.5 -65t35.5 -48t68 -18.5q32 0 67 8.5t77 23.5l-1 -123q-35 -20 -76 -28.5t-93 -8.5q-84 0 -134.5 28.5t-78 76.5t-36.5 112t-9 135v590h-203z" />
<glyph unicode="u" horiz-adv-x="1217" d="M157 399v627h165v-627q-1 -143 61 -216.5t195 -73.5q72 0 127.5 26t94 71t58.5 104.5t20 125.5v590h165v-780q0 -66 1.5 -124.5t6.5 -121.5h-170l-3 135q-116 -158 -338 -158q-76 0 -134 17.5t-100.5 47.5t-71 71t-45.5 88t-24.5 97.5t-7.5 100.5z" />
<glyph unicode="v" horiz-adv-x="1063" d="M14 1026h182l281 -690q7 -17 17 -45.5t19 -57.5q11 -33 22 -70q10 36 21 69q9 28 18 57t17 47l276 690h177l-433 -1026h-168z" />
<glyph unicode="w" horiz-adv-x="1695" d="M25 1026h176l249 -742q4 -12 8.5 -28.5t9.5 -32.5q5 -18 11 -37q6 16 11 33q5 14 10 29.5t10 27.5l265 750h166l248 -740q4 -12 8.5 -28.5t9.5 -31.5q5 -18 11 -37q7 18 13 36l10.5 31.5t10.5 30.5l240 739h169l-368 -1026h-160l-281 831l-300 -831h-162z" />
<glyph unicode="x" horiz-adv-x="1043" d="M20 0l400 514l-381 512h203l284 -412l293 412h179l-378 -508l391 -518h-201l-299 418l-301 -418h-190z" />
<glyph unicode="y" horiz-adv-x="1069" d="M17 1026h181l332 -855l341 855h175l-454 -1098q-27 -66 -65 -125t-87 -105.5t-108.5 -79t-130.5 -45.5l-92 113q84 22 139 54t90 68t54.5 74.5t32.5 74.5l17 49z" />
<glyph unicode="z" horiz-adv-x="958" d="M58 0v89l600 802h-574v135h797v-87l-598 -805h613l2 -134h-840z" />
<glyph unicode="{" horiz-adv-x="627" d="M85 656q44 4 75 22.5t50 48.5t28 71.5t9 91.5q-2 63 -2 126.5t-2 126.5q0 73 17 130t55 96.5t100 60.5t151 21v-126q-39 -1 -68.5 -9.5t-49 -28t-29.5 -51t-10 -79.5l-1 -289q0 -59 -14 -104.5t-34.5 -79t-45 -55.5t-46.5 -34q43 -20 69.5 -51.5t41.5 -69t20.5 -76.5 t5.5 -73q0 -49 -1 -108t-1 -110q0 -70 8 -116.5t26.5 -74t50 -38.5t78.5 -11v-126q-70 3 -129 18.5t-102.5 47.5t-67.5 82t-24 122l1 263q0 46 -3 90.5t-18 80t-47 59.5t-90 30z" />
<glyph unicode="|" horiz-adv-x="500" d="M168 -491v2036h157v-2036h-157z" />
<glyph unicode="}" horiz-adv-x="627" d="M66 -133q47 0 78.5 11t50 38.5t26.5 74t8 116.5q0 51 -1 110t-1 108q0 34 5.5 73t20.5 76.5t41.5 69t69.5 51.5q-22 12 -46.5 34t-45 55.5t-34.5 79t-14 104.5l-1 289q0 48 -10 79.5t-29.5 51t-49 28t-68.5 9.5v126q89 0 150.5 -21t100 -60.5t55.5 -96.5t17 -130 q-2 -63 -2 -126.5t-2 -126.5q0 -50 9 -91.5t28 -71.5t50 -48.5t75 -22.5l-1 -122q-58 -6 -90 -30t-47 -59.5t-18 -80t-3 -90.5l1 -263q0 -72 -24 -122t-67.5 -82t-102.5 -47.5t-129 -18.5v126z" />
<glyph unicode="~" horiz-adv-x="1458" d="M189 440q11 52 36 99.5t63 84.5t89 59t114 22q38 0 80.5 -12t86.5 -29.5t87 -38.5t82.5 -38.5t72.5 -29.5t57 -12q33 0 61 15t50.5 40t38.5 57t24 66l125 -39q-14 -60 -40 -110t-64 -86.5t-87.5 -57t-108.5 -20.5q-30 0 -67.5 12t-78 30t-83.5 38.5t-84 38.5t-79.5 30 t-69.5 12q-39 0 -70 -16t-55 -42t-40.5 -59.5t-24.5 -68.5z" />
<glyph unicode="&#xa1;" horiz-adv-x="737" d="M260 884v206h214v-206h-214zM271 -384l40 1078h115l40 -1078h-195z" />
<glyph unicode="&#xa2;" horiz-adv-x="1189" d="M170 503q0 108 31.5 205t92 170.5t149.5 119.5t203 52l13 211h130l-14 -217q87 -13 152.5 -48t106.5 -88l-75 -107q-36 45 -85.5 72t-106.5 38l-50 -802q154 7 279 116l46 -138q-69 -54 -151 -80t-182 -29l-14 -233h-129l14 240q-102 15 -179 61.5t-128 115.5t-77 156.5 t-26 184.5zM343 508q0 -71 15 -134.5t45 -114t76.5 -86t109.5 -51.5l48 790q-69 -11 -124 -46.5t-92.5 -89.5t-57.5 -122.5t-20 -145.5z" />
<glyph unicode="&#xa3;" horiz-adv-x="1189" d="M114 138q34 20 67 44t59 58.5t41.5 83t15.5 116.5v250h-181l-2 142h182q-3 78 0.5 153.5t19 144t45.5 127t79.5 101t121 66.5t171.5 24q106 0 189 -23.5t140 -67.5l-52 -120q-53 33 -123 51.5t-151 18.5q-76 0 -128 -26t-84.5 -73t-46.5 -113.5t-14 -147.5l3 -115h330 l2 -142h-330q0 -77 -1.5 -161.5t-10.5 -160.5t-29 -136.5t-57 -90.5h709l2 -141h-966z" />
<glyph unicode="&#xa4;" horiz-adv-x="1246" d="M190 635q0 60 13 116t38 104.5t62.5 87t87.5 63.5l-139 279l41 16l137 -278q66 28 157 28q61 0 124 -17l114 267l41 -16l-115 -267q98 -46 144 -132t46 -198q0 -54 -11.5 -105.5t-33 -97.5t-54 -84t-74.5 -65l138 -280l-35 -16l-137 276q-43 -20 -89 -31t-100 -11 q-66 0 -109 13l-107 -247l-37 16l105 245q-101 40 -154 129t-53 205zM283 639q0 -60 17 -113t51 -93.5t84.5 -64t118.5 -23.5q70 0 123 26t90 69.5t57 100.5t23 119v23q0 61 -16 114.5t-49 94t-83.5 64t-120.5 23.5q-72 0 -127 -28.5t-92.5 -76t-56.5 -108.5t-19 -127z" />
<glyph unicode="&#xa5;" horiz-adv-x="1189" d="M26 1420h205l289 -483l81 -141l85 140l287 484h186l-455 -704h364v-142h-391v-151h394v-140h-391v-283h-172v283h-399l-11 140h408v151h-403v142h368z" />
<glyph unicode="&#xa6;" horiz-adv-x="500" d="M168 393h157v-884h-157v884zM168 677v868h157v-868h-157z" />
<glyph unicode="&#xa7;" horiz-adv-x="1097" d="M185 729q0 43 15.5 79.5t41.5 67.5t60 55.5t72 43.5q-36 22 -64.5 46.5t-48 53.5t-30 63.5t-10.5 78.5q0 69 30 121t82 86.5t121.5 51.5t148.5 17q64 0 117 -11.5t112 -29.5l2 -148q-24 11 -53 20.5t-59.5 16.5t-60 11t-53.5 4q-46 0 -85 -7.5t-68 -23.5t-45.5 -42 t-16.5 -62q0 -30 10.5 -54.5t35.5 -48t67 -46.5t105 -50q60 -26 114.5 -53.5t95.5 -61.5t65.5 -75.5t24.5 -94.5q0 -42 -15.5 -79t-41 -69t-59.5 -59.5t-70 -49.5q36 -18 66 -40t51.5 -49t33.5 -61.5t12 -77.5q0 -72 -33.5 -128t-89.5 -94.5t-129.5 -58t-153.5 -19.5 q-69 0 -138 13t-132 39l-2 149q74 -34 140.5 -49t126.5 -15q56 0 100.5 12t75 32.5t46.5 48.5t16 61t-14 56.5t-41 42.5t-66 37t-89 39l-84 36q-108 46 -172 113t-64 162zM362 741q0 -37 16.5 -64t47 -49t72.5 -41t93 -40q24 15 49.5 33.5t46 40t33.5 47t13 55.5 q0 32 -13.5 55.5t-37 42t-55.5 33.5t-69 31l-23 9q-10 4 -20.5 8.5t-19.5 9.5q-26 -14 -49.5 -31.5t-42.5 -38.5t-30 -46t-11 -55z" />
<glyph unicode="&#xa8;" horiz-adv-x="743" d="M122 1246v163h164l-1 -163h-163zM454 1246v163h164v-163h-164z" />
<glyph unicode="&#xa9;" horiz-adv-x="1829" d="M103 726q0 104 29 200t82 180t127 153.5t163.5 119t191.5 77t212 27.5q112 0 215.5 -27.5t193 -77.5t163.5 -119.5t126.5 -154t81.5 -180.5t29 -199q0 -104 -29 -200t-81.5 -180t-126 -153.5t-162.5 -119t-191.5 -77t-212.5 -27.5q-112 0 -216 27.5t-194 77t-164 119 t-126.5 153.5t-81.5 180.5t-29 200.5zM230 727q0 -91 23.5 -173.5t67.5 -154t105.5 -129.5t137.5 -99t164 -63.5t185 -22.5q144 0 267.5 49.5t214.5 135.5t143 202.5t52 251.5q0 91 -23.5 173.5t-67.5 154t-105.5 129.5t-137 99t-163.5 63.5t-184 22.5q-143 0 -267 -49 t-215.5 -135t-144 -203t-52.5 -252zM460 729q0 104 35 192t99.5 151.5t155 99.5t201.5 36q172 0 294 -103l-31 -120q-110 95 -270 95q-77 0 -138 -27t-104 -74t-66 -110.5t-23 -135.5q0 -74 23 -138t68 -112t112 -75.5t156 -27.5q66 0 126.5 19t111.5 61l39 -121 q-129 -90 -309 -90q-105 0 -193.5 37.5t-152 102.5t-99 152.5t-35.5 187.5z" />
<glyph unicode="&#xaa;" horiz-adv-x="745" d="M66 975q0 43 18 79.5t50.5 64t77 46.5t97.5 27q57 9 115 10.5t112 8.5v8q0 43 -7.5 72t-25 46t-45.5 24.5t-70 7.5q-30 0 -60 -4t-57 -14.5t-50.5 -29t-42.5 -46.5l-67 75q40 68 114.5 97.5t168.5 29.5q129 0 202 -59t73 -174v-9l-2 -321q-1 -11 0 -31.5t3 -42.5l4 -54 h-131l-6 74q-34 -42 -89.5 -67t-130.5 -25q-54 0 -100 14.5t-79.5 41.5t-52.5 65.5t-19 85.5zM202 977q0 -56 38 -81t98 -25q51 0 88.5 17.5t63 47.5t38.5 68.5t15 80.5l-4 25q-35 -7 -73.5 -10.5t-76 -7.5t-71.5 -10.5t-60 -19t-41 -33t-15 -52.5z" />
<glyph unicode="&#xab;" horiz-adv-x="1156" d="M246 541l275 373h160l-265 -373l256 -370h-157zM616 541l274 373h159l-263 -373l256 -370h-157z" />
<glyph unicode="&#xac;" horiz-adv-x="1458" d="M200 659v139h1048v-560h-150v421h-898z" />
<glyph unicode="&#xad;" horiz-adv-x="728" d="M79 626h571l1 -137h-571z" />
<glyph unicode="&#xae;" horiz-adv-x="1829" d="M103 726q0 104 29 200t82 180t127 153.5t163.5 119t191.5 77t212 27.5q112 0 215.5 -27.5t193 -77.5t163.5 -119.5t126.5 -154t81.5 -180.5t29 -199q0 -104 -29 -200t-81.5 -180t-126 -153.5t-162.5 -119t-191.5 -77t-212.5 -27.5q-112 0 -216 27.5t-194 77t-164 119 t-126.5 153.5t-81.5 180.5t-29 200.5zM230 727q0 -91 23.5 -173.5t67.5 -154t105.5 -129.5t137.5 -99t164 -63.5t185 -22.5q96 0 183.5 22.5t162.5 63.5t136.5 99t104.5 129t66.5 153t23.5 172q0 91 -23.5 173.5t-67.5 154t-105.5 129.5t-137 99t-163.5 63.5t-184 22.5 q-143 0 -267 -49t-215.5 -135.5t-144 -203t-52.5 -251.5zM597 273v919h273q219 0 325 -66.5t106 -190.5q0 -46 -15.5 -88t-47.5 -76t-82.5 -57.5t-119.5 -32.5q28 -26 56.5 -61.5t58 -77.5t59 -89t59.5 -96l51 -84h-168l-123 212q-38 66 -74.5 111t-72.5 68h-137v-391h-148z M742 1072l1 -289h125q64 0 115.5 4t87.5 18.5t55.5 41.5t19.5 73q0 50 -15.5 80t-49.5 46t-88.5 21t-132.5 5h-118z" />
<glyph unicode="&#xaf;" horiz-adv-x="850" d="M-3 1380v130h856v-130h-856z" />
<glyph unicode="&#xb0;" horiz-adv-x="844" d="M95 1150q0 61 25.5 114.5t69 93.5t101.5 63t123 23t123 -23t101.5 -63t69 -93.5t25.5 -114.5t-25.5 -114.5t-69.5 -93.5t-102 -63.5t-122 -23.5q-65 0 -122.5 23.5t-101.5 63.5t-69.5 93.5t-25.5 114.5zM220 1151q0 -38 15 -71t41.5 -57t61.5 -38t76 -14q40 0 75.5 14 t62 38t41.5 57t15 71t-15.5 70.5t-42 56t-62 37t-74.5 13.5t-74.5 -13.5t-62 -37t-42 -56t-15.5 -70.5z" />
<glyph unicode="&#xb1;" horiz-adv-x="1458" d="M188 595v138h457v374h149v-374h451v-138h-447v-372h-151v372h-459zM200 0v138h1049v-138h-1049z" />
<glyph unicode="&#xb2;" d="M283 604v111l95 87q55 51 112.5 106t104.5 108.5t76.5 103t29.5 91.5q0 51 -37 81.5t-103 30.5q-63 0 -109.5 -35t-75.5 -96l-85 78q35 81 107.5 125.5t168.5 44.5q56 0 104 -16t83.5 -45.5t55.5 -71.5t20 -94q0 -65 -28.5 -125t-77.5 -119.5t-116 -120t-143 -126.5h364 v-118h-546z" />
<glyph unicode="&#xb3;" d="M235 683l60 96q84 -78 181 -78q36 0 68 9t55.5 26.5t37.5 43t14 57.5q0 37 -15 62.5t-43 41.5t-68 23t-89 7q-4 0 -8 -0.5t-7 -0.5h-41v119h49q43 0 79 6t62.5 20.5t41 37.5t14.5 57q0 29 -10.5 50.5t-29.5 35t-44.5 20t-56.5 6.5q-54 0 -101.5 -21.5t-90.5 -56.5l-58 96 q46 45 113 73t139 28q52 0 101.5 -15t87 -44t60.5 -71.5t23 -97.5q0 -59 -27.5 -106t-79.5 -75q60 -27 94 -76.5t34 -121.5q0 -57 -24 -103t-65 -78.5t-95.5 -49.5t-114.5 -17q-72 0 -135 24.5t-111 72.5z" />
<glyph unicode="&#xb4;" horiz-adv-x="607" d="M175 1172l226 320h212l-308 -320h-130z" />
<glyph unicode="&#xb6;" horiz-adv-x="1214" d="M107 1130q0 94 41.5 156t112.5 98.5t164.5 51.5t197.5 15h386v-124h-87v-1475h-129v1475h-208v-1475h-143v934q-68 1 -129 26t-106.5 70t-72.5 108t-27 140z" />
<glyph unicode="&#xb7;" horiz-adv-x="444" d="M76 513v210h217v-210h-217z" />
<glyph unicode="&#xb8;" horiz-adv-x="529" d="M52 -374l8 85q44 -11 82 -17.5t69 -6.5q63 0 88.5 20t25.5 52q0 41 -30.5 57t-78.5 16q-3 0 -14 -1t-23 -2l-32 -2l33 190h97l-18 -107q42 -1 80 -9.5t66.5 -26.5t45.5 -45.5t17 -67.5t-18.5 -69.5t-51 -49t-76.5 -29t-95 -9.5q-39 0 -84 6.5t-91 15.5z" />
<glyph unicode="&#xb9;" d="M239 1203l1 130q53 17 93 37.5t75 41.5l105 15v-707h122v-116h-365v119h122v346q0 33 -0.5 65.5t-0.5 65.5v71q-32 -17 -72 -35t-80 -33z" />
<glyph unicode="&#xba;" horiz-adv-x="824" d="M53 1124q0 74 24 138t70.5 111.5t113.5 75t154 27.5q88 0 155 -27.5t112.5 -75.5t68.5 -112.5t23 -139.5q0 -73 -23.5 -137.5t-69 -112.5t-112 -76t-153.5 -28q-90 0 -157.5 27.5t-113.5 75.5t-69 113.5t-23 140.5zM193 1123q0 -51 13.5 -96.5t41.5 -79t70 -53t98 -19.5 q53 0 94 19.5t69 53t42.5 78t14.5 93.5q0 52 -14.5 97.5t-42.5 79.5t-70 53.5t-96 19.5q-53 0 -94 -19.5t-69 -53.5t-42.5 -78.5t-14.5 -94.5z" />
<glyph unicode="&#xbb;" horiz-adv-x="1156" d="M165 171l265 371l-258 372h158l270 -372l-275 -371h-160zM563 171l261 371l-254 372h156l270 -372l-276 -371h-157z" />
<glyph unicode="&#xbc;" horiz-adv-x="1986" d="M239 1203l1 130q53 17 93 37.5t75 41.5l105 15v-707h122v-116h-365v119h122v346q0 33 -0.5 65.5t-0.5 65.5v71q-32 -17 -72 -35t-80 -33zM437 0l905 1436h149l-903 -1436h-151zM1064 225v91l366 518h134v-502h109l10 -107h-121v-188h-120v188h-378zM1203 332h237v180 l3 156z" />
<glyph unicode="&#xbd;" horiz-adv-x="1858" d="M239 1203l1 130q53 17 93 37.5t75 41.5l105 15v-707h122v-116h-365v119h122v346q0 33 -0.5 65.5t-0.5 65.5v71q-32 -17 -72 -35t-80 -33zM379 0l905 1436h149l-903 -1436h-151zM1064 -25v111l95 87q55 51 112.5 106t104.5 108.5t76.5 103t29.5 91.5q0 51 -37 81.5 t-103 30.5q-63 0 -109.5 -35t-75.5 -96l-85 78q35 81 107.5 125.5t168.5 44.5q56 0 104 -16t83.5 -45.5t55.5 -71.5t20 -94q0 -65 -28.5 -125t-77.5 -119.5t-116 -120t-143 -126.5h364v-118h-546z" />
<glyph unicode="&#xbe;" horiz-adv-x="1921" d="M180 683l60 96q84 -78 181 -78q36 0 68 9t55.5 26.5t37.5 43t14 57.5q0 37 -15 62.5t-43 41.5t-68 23t-89 7q-4 0 -8 -0.5t-7 -0.5h-41v119h49q43 0 79 6t62.5 20.5t41 37.5t14.5 57q0 29 -10.5 50.5t-29.5 35t-44.5 20t-56.5 6.5q-54 0 -101.5 -21.5t-90.5 -56.5l-58 96 q46 45 113 73t139 28q52 0 101.5 -15t87 -44t60.5 -71.5t23 -97.5q0 -59 -27.5 -106t-79.5 -75q60 -27 94 -76.5t34 -121.5q0 -57 -24 -103t-65 -78.5t-95.5 -49.5t-114.5 -17q-72 0 -135 24.5t-111 72.5zM423 0l905 1436h149l-903 -1436h-151zM1033 229v91l366 518h134 v-502h109l10 -107h-121v-188h-120v188h-378zM1172 336h237v180l3 156z" />
<glyph unicode="&#xbf;" horiz-adv-x="1032" d="M146 -63q0 63 29.5 120.5t73.5 111t95 103t95 97t73.5 94.5t29.5 94q0 23 -3 48t-6 47q-4 26 -8 50h164q2 -30 5 -60q2 -26 3.5 -54t1.5 -48q0 -61 -28.5 -112t-71 -97t-92.5 -89.5t-92.5 -89.5t-71 -96.5t-28.5 -110.5q0 -57 24 -97t64 -65.5t91.5 -37t106.5 -11.5 q69 0 135 17.5t126 51.5v-146q-72 -35 -145 -50t-136 -15q-92 0 -171.5 21.5t-138 64.5t-92 107.5t-33.5 151.5zM499 871v210h217v-210h-217z" />
<glyph unicode="&#xc0;" horiz-adv-x="1425" d="M13 0l604 1456h185l605 -1456h-191l-163 397h-698l-156 -397h-186zM410 545h584l-234 605q-8 19 -17 44.5t-17 48.5q-10 27 -19 55q-10 -32 -20 -61q-8 -25 -17.5 -49.5t-14.5 -38.5zM482 1922h214l247 -320h-129z" />
<glyph unicode="&#xc1;" horiz-adv-x="1425" d="M13 0l604 1456h185l605 -1456h-191l-163 397h-698l-156 -397h-186zM410 545h584l-234 605q-8 19 -17 44.5t-17 48.5q-10 27 -19 55q-10 -32 -20 -61q-8 -25 -17.5 -49.5t-14.5 -38.5zM493 1602l226 320h212l-308 -320h-130z" />
<glyph unicode="&#xc2;" horiz-adv-x="1425" d="M13 0l604 1456h185l605 -1456h-191l-163 397h-698l-156 -397h-186zM405 1600l228 324h157l229 -324h-132l-178 216l-178 -216h-126zM410 545h584l-234 605q-8 19 -17 44.5t-17 48.5q-10 27 -19 55q-10 -32 -20 -61q-8 -25 -17.5 -49.5t-14.5 -38.5z" />
<glyph unicode="&#xc3;" horiz-adv-x="1425" d="M13 0l604 1456h185l605 -1456h-191l-163 397h-698l-156 -397h-186zM390 1633q4 47 20 85.5t41.5 66.5t60.5 43t77 15q35 0 67.5 -10.5t63.5 -23.5t60.5 -23.5t58.5 -10.5q34 0 57.5 22.5t29.5 67.5h108q-5 -45 -19.5 -84t-39.5 -68.5t-59 -46t-77 -16.5q-30 0 -62.5 10.5 t-65.5 23.5t-65 23.5t-60 10.5q-81 0 -91 -85h-105zM410 545h584l-234 605q-8 19 -17 44.5t-17 48.5q-10 27 -19 55q-10 -32 -20 -61q-8 -25 -17.5 -49.5t-14.5 -38.5z" />
<glyph unicode="&#xc4;" horiz-adv-x="1425" d="M13 0l604 1456h185l605 -1456h-191l-163 397h-698l-156 -397h-186zM410 545h584l-234 605q-8 19 -17 44.5t-17 48.5q-10 27 -19 55q-10 -32 -20 -61q-8 -25 -17.5 -49.5t-14.5 -38.5zM464 1676v163h164l-1 -163h-163zM796 1676v163h164v-163h-164z" />
<glyph unicode="&#xc5;" horiz-adv-x="1425" d="M13 0l604 1456h185l605 -1456h-191l-163 397h-698l-156 -397h-186zM410 545h584l-234 605q-8 19 -17 44.5t-17 48.5q-10 27 -19 55q-10 -32 -20 -61q-8 -25 -17.5 -49.5t-14.5 -38.5zM502 1769q0 41 16.5 76t45 60.5t67 40t81.5 14.5q44 0 82.5 -15t67 -40.5t44.5 -60.5 t16 -74q0 -40 -17 -74.5t-45.5 -60.5t-66.5 -41t-80 -15q-44 0 -82.5 14.5t-67 40t-45 60.5t-16.5 75zM601 1770q0 -46 29.5 -75.5t80.5 -29.5q22 0 42 8.5t35.5 22.5t24.5 33.5t9 40.5q0 22 -8.5 41t-23.5 33t-35.5 22.5t-43.5 8.5q-22 0 -42 -8.5t-35 -22.5t-24 -33.5 t-9 -40.5z" />
<glyph unicode="&#xc6;" horiz-adv-x="2028" d="M5 0l831 1456h1039l3 -148h-719l38 -488h637l3 -148h-621l41 -524h641l3 -148h-797l-31 398h-646l-226 -398h-196zM506 546h548l-60 762h-50z" />
<glyph unicode="&#xc7;" horiz-adv-x="1399" d="M108 713q0 103 21.5 200t63 182.5t102.5 157t139.5 122.5t173.5 79.5t206 28.5q136 0 243 -36.5t198 -117.5l-65 -110q-153 115 -357 115q-92 0 -168 -24.5t-136.5 -68t-105 -102.5t-74 -128t-44 -145.5t-14.5 -153.5q0 -118 31 -224.5t95 -187t162 -128t232 -47.5 q123 0 231.5 35.5t190.5 107.5l58 -141q-93 -75 -220 -112.5t-286 -37.5q-165 0 -291 58t-212 158.5t-130 234t-44 285.5zM491 -374l8 85q44 -11 82 -17.5t69 -6.5q63 0 88.5 20t25.5 52q0 41 -30.5 57t-78.5 16q-3 0 -14 -1t-23 -2l-32 -2l33 190h97l-18 -107 q42 -1 80 -9.5t66.5 -26.5t45.5 -45.5t17 -67.5t-18.5 -69.5t-51 -49t-76.5 -29t-95 -9.5q-39 0 -84 6.5t-91 15.5z" />
<glyph unicode="&#xc8;" horiz-adv-x="1218" d="M205 0v1456h867v-148h-695v-488h657v-148h-657v-524h725v-148h-897zM378 1922h214l247 -320h-129z" />
<glyph unicode="&#xc9;" horiz-adv-x="1218" d="M205 0v1456h867v-148h-695v-488h657v-148h-657v-524h725v-148h-897zM390 1602l226 320h212l-308 -320h-130z" />
<glyph unicode="&#xca;" horiz-adv-x="1218" d="M205 0v1456h867v-148h-695v-488h657v-148h-657v-524h725v-148h-897zM302 1600l228 324h157l229 -324h-132l-178 216l-178 -216h-126z" />
<glyph unicode="&#xcb;" horiz-adv-x="1218" d="M205 0v1456h867v-148h-695v-488h657v-148h-657v-524h725v-148h-897zM361 1676v163h164l-1 -163h-163zM693 1676v163h164v-163h-164z" />
<glyph unicode="&#xcc;" horiz-adv-x="591" d="M65 1922h214l247 -320h-129zM210 0v1456h172v-1456h-172z" />
<glyph unicode="&#xcd;" horiz-adv-x="591" d="M78 1602l226 320h212l-308 -320h-130zM210 0v1456h172v-1456h-172z" />
<glyph unicode="&#xce;" horiz-adv-x="591" d="M-10 1600l228 324h157l229 -324h-132l-178 216l-178 -216h-126zM210 0v1456h172v-1456h-172z" />
<glyph unicode="&#xcf;" horiz-adv-x="591" d="M49 1676v163h164l-1 -163h-163zM210 0v1456h172v-1456h-172zM381 1676v163h164v-163h-164z" />
<glyph unicode="&#xd0;" horiz-adv-x="1546" d="M-1 795h194v661h315q130 0 249 -15t221.5 -49t186 -89.5t142.5 -137t91 -191t32 -250.5q0 -166 -55.5 -299.5t-161 -228t-258 -145.5t-345.5 -51h-417v658h-193zM365 148h261q159 0 276 42.5t194 118.5t114.5 181.5t37.5 230.5q0 164 -46 276.5t-136.5 181.5t-225 99 t-311.5 30h-164v-513h205l1 -137h-206v-510z" />
<glyph unicode="&#xd1;" horiz-adv-x="1594" d="M193 0v1456h206l747 -1114l78 -127v233v1008h171v-1456h-208l-750 1113l-72 124v-190v-1047h-172zM475 1633q4 47 20 85.5t41.5 66.5t60.5 43t77 15q35 0 67.5 -10.5t63.5 -23.5t60.5 -23.5t58.5 -10.5q34 0 57.5 22.5t29.5 67.5h108q-5 -45 -19.5 -84t-39.5 -68.5 t-59 -46t-77 -16.5q-30 0 -62.5 10.5t-65.5 23.5t-65 23.5t-60 10.5q-81 0 -91 -85h-105z" />
<glyph unicode="&#xd2;" horiz-adv-x="1663" d="M114 729q0 164 49 302t142 238.5t227 157t305 56.5q163 0 294 -54t223 -153t141 -238.5t49 -311.5q0 -165 -48.5 -302.5t-140.5 -237t-225 -154.5t-301 -55q-167 0 -299.5 53t-225 151t-141.5 237t-49 311zM298 725q0 -126 33.5 -235.5t100 -190.5t165.5 -127.5 t230 -46.5q132 0 231.5 46.5t165.5 128t99 193t33 241.5q0 127 -32.5 237t-98.5 191t-164.5 127t-230.5 46q-131 0 -230 -50t-166.5 -134t-101.5 -194.5t-34 -231.5zM601 1922h214l247 -320h-129z" />
<glyph unicode="&#xd3;" horiz-adv-x="1663" d="M114 729q0 164 49 302t142 238.5t227 157t305 56.5q163 0 294 -54t223 -153t141 -238.5t49 -311.5q0 -165 -48.5 -302.5t-140.5 -237t-225 -154.5t-301 -55q-167 0 -299.5 53t-225 151t-141.5 237t-49 311zM298 725q0 -126 33.5 -235.5t100 -190.5t165.5 -127.5 t230 -46.5q132 0 231.5 46.5t165.5 128t99 193t33 241.5q0 127 -32.5 237t-98.5 191t-164.5 127t-230.5 46q-131 0 -230 -50t-166.5 -134t-101.5 -194.5t-34 -231.5zM612 1602l226 320h212l-308 -320h-130z" />
<glyph unicode="&#xd4;" horiz-adv-x="1663" d="M114 729q0 164 49 302t142 238.5t227 157t305 56.5q163 0 294 -54t223 -153t141 -238.5t49 -311.5q0 -165 -48.5 -302.5t-140.5 -237t-225 -154.5t-301 -55q-167 0 -299.5 53t-225 151t-141.5 237t-49 311zM298 725q0 -126 33.5 -235.5t100 -190.5t165.5 -127.5 t230 -46.5q132 0 231.5 46.5t165.5 128t99 193t33 241.5q0 127 -32.5 237t-98.5 191t-164.5 127t-230.5 46q-131 0 -230 -50t-166.5 -134t-101.5 -194.5t-34 -231.5zM524 1600l228 324h157l229 -324h-132l-178 216l-178 -216h-126z" />
<glyph unicode="&#xd5;" horiz-adv-x="1663" d="M114 729q0 164 49 302t142 238.5t227 157t305 56.5q163 0 294 -54t223 -153t141 -238.5t49 -311.5q0 -165 -48.5 -302.5t-140.5 -237t-225 -154.5t-301 -55q-167 0 -299.5 53t-225 151t-141.5 237t-49 311zM298 725q0 -126 33.5 -235.5t100 -190.5t165.5 -127.5 t230 -46.5q132 0 231.5 46.5t165.5 128t99 193t33 241.5q0 127 -32.5 237t-98.5 191t-164.5 127t-230.5 46q-131 0 -230 -50t-166.5 -134t-101.5 -194.5t-34 -231.5zM509 1633q4 47 20 85.5t41.5 66.5t60.5 43t77 15q35 0 67.5 -10.5t63.5 -23.5t60.5 -23.5t58.5 -10.5 q34 0 57.5 22.5t29.5 67.5h108q-5 -45 -19.5 -84t-39.5 -68.5t-59 -46t-77 -16.5q-30 0 -62.5 10.5t-65.5 23.5t-65 23.5t-60 10.5q-81 0 -91 -85h-105z" />
<glyph unicode="&#xd6;" horiz-adv-x="1663" d="M114 729q0 164 49 302t142 238.5t227 157t305 56.5q163 0 294 -54t223 -153t141 -238.5t49 -311.5q0 -165 -48.5 -302.5t-140.5 -237t-225 -154.5t-301 -55q-167 0 -299.5 53t-225 151t-141.5 237t-49 311zM298 725q0 -126 33.5 -235.5t100 -190.5t165.5 -127.5 t230 -46.5q132 0 231.5 46.5t165.5 128t99 193t33 241.5q0 127 -32.5 237t-98.5 191t-164.5 127t-230.5 46q-131 0 -230 -50t-166.5 -134t-101.5 -194.5t-34 -231.5zM583 1676v163h164l-1 -163h-163zM915 1676v163h164v-163h-164z" />
<glyph unicode="&#xd7;" horiz-adv-x="1458" d="M322 257l296 297l-296 297l103 103l297 -297l296 297l104 -104l-297 -296l297 -296l-104 -104l-296 296l-297 -296z" />
<glyph unicode="&#xd8;" horiz-adv-x="1663" d="M114 729q0 164 49 302t142 238.5t227 157t305 56.5q163 0 294 -54t223 -153t141 -238.5t49 -311.5q0 -165 -48.5 -302.5t-140.5 -237t-225 -154.5t-301 -55q-167 0 -299.5 53t-225 151t-141.5 237t-49 311zM298 725q0 -126 33.5 -235.5t100 -190.5t165.5 -127.5 t230 -46.5q132 0 231.5 46.5t165.5 128t99 193t33 241.5q0 127 -32.5 237t-98.5 191t-164.5 127t-230.5 46q-131 0 -230 -50t-166.5 -134t-101.5 -194.5t-34 -231.5zM442 -117l637 1666h167l-641 -1666h-163z" />
<glyph unicode="&#xd9;" horiz-adv-x="1532" d="M191 541v915h172v-910q0 -204 101 -312.5t299 -108.5q91 0 165.5 28.5t127 82t81 130.5t28.5 173v917h172l-1 -905q-1 -135 -37.5 -242t-109 -180.5t-181 -112.5t-252.5 -39q-156 0 -264 41t-175 115.5t-96.5 178.5t-29.5 229zM535 1922h214l247 -320h-129z" />
<glyph unicode="&#xda;" horiz-adv-x="1532" d="M191 541v915h172v-910q0 -204 101 -312.5t299 -108.5q91 0 165.5 28.5t127 82t81 130.5t28.5 173v917h172l-1 -905q-1 -135 -37.5 -242t-109 -180.5t-181 -112.5t-252.5 -39q-156 0 -264 41t-175 115.5t-96.5 178.5t-29.5 229zM547 1602l226 320h212l-308 -320h-130z" />
<glyph unicode="&#xdb;" horiz-adv-x="1532" d="M191 541v915h172v-910q0 -204 101 -312.5t299 -108.5q91 0 165.5 28.5t127 82t81 130.5t28.5 173v917h172l-1 -905q-1 -135 -37.5 -242t-109 -180.5t-181 -112.5t-252.5 -39q-156 0 -264 41t-175 115.5t-96.5 178.5t-29.5 229zM459 1600l228 324h157l229 -324h-132 l-178 216l-178 -216h-126z" />
<glyph unicode="&#xdc;" horiz-adv-x="1532" d="M191 541v915h172v-910q0 -204 101 -312.5t299 -108.5q91 0 165.5 28.5t127 82t81 130.5t28.5 173v917h172l-1 -905q-1 -135 -37.5 -242t-109 -180.5t-181 -112.5t-252.5 -39q-156 0 -264 41t-175 115.5t-96.5 178.5t-29.5 229zM518 1676v163h164l-1 -163h-163zM850 1676 v163h164v-163h-164z" />
<glyph unicode="&#xdd;" horiz-adv-x="1266" d="M10 1456h191l431 -729l435 729h191l-543 -871v-585h-172v582zM414 1602l226 320h212l-308 -320h-130z" />
<glyph unicode="&#xde;" horiz-adv-x="1274" d="M203 0v1456h172v-144h169q85 0 166.5 -7.5t154.5 -26t134.5 -50t106 -80t69.5 -115.5t25 -157q0 -114 -49.5 -196t-133 -134.5t-192.5 -77.5t-228 -25h-222v-443h-172zM375 592h261q82 0 152 16.5t120.5 51t79 87.5t28.5 127q0 87 -31.5 143.5t-88 89t-135 45 t-173.5 12.5h-213v-572z" />
<glyph unicode="&#xdf;" horiz-adv-x="1257" d="M174 1071q-1 100 28 181t84.5 138.5t135.5 89t182 31.5q96 0 171.5 -25t128 -68.5t80 -101.5t27.5 -124q0 -67 -32 -126.5t-78 -108t-96 -85.5t-86 -59q-7 -4 -7 -7t7 -6q79 -31 159.5 -69.5t146 -92.5t107 -126t41.5 -171q0 -83 -32 -150t-85.5 -114.5t-122 -73.5 t-141.5 -26q-86 0 -170.5 38.5t-150.5 122.5l65 105q59 -69 125.5 -101.5t126.5 -32.5q40 0 76 14t63 41t43 67t16 91q0 76 -34.5 136t-89.5 109.5t-123 90.5t-134 79l-33 19l16 136q46 21 88.5 51t75 68.5t52 83.5t19.5 96q0 45 -16 80t-44.5 60t-69.5 38t-90 13 q-70 0 -120.5 -27.5t-82.5 -74t-47.5 -109.5t-15.5 -133q0 -65 0.5 -149t0.5 -178t1 -192.5t1 -192.5t0.5 -178t0.5 -148h-165z" />
<glyph unicode="&#xe0;" horiz-adv-x="1244" d="M89 524q0 99 30.5 194t92 169t154 119t216.5 45q63 0 115 -11.5t96 -32.5t81 -52t69 -70l6 141h163l-4 -253v-773h-165l2 144q-24 -32 -60.5 -62.5t-82.5 -53.5t-101.5 -37t-116.5 -14q-86 0 -156 22.5t-125 62t-95.5 92.5t-66.5 114t-39 126.5t-13 129.5zM251 516 q0 -46 6.5 -94.5t21.5 -93.5t41 -85t64.5 -69.5t92 -47t124.5 -17.5q70 0 131.5 28.5t108 84t74 138t28.5 190.5q0 81 -24.5 148t-69.5 116t-109.5 76t-144.5 27q-61 0 -110 -16.5t-87 -45.5t-66 -68t-46 -83.5t-26.5 -92.5t-8.5 -95zM391 1492h214l247 -320h-129z" />
<glyph unicode="&#xe1;" horiz-adv-x="1244" d="M89 524q0 99 30.5 194t92 169t154 119t216.5 45q63 0 115 -11.5t96 -32.5t81 -52t69 -70l6 141h163l-4 -253v-773h-165l2 144q-24 -32 -60.5 -62.5t-82.5 -53.5t-101.5 -37t-116.5 -14q-86 0 -156 22.5t-125 62t-95.5 92.5t-66.5 114t-39 126.5t-13 129.5zM251 516 q0 -46 6.5 -94.5t21.5 -93.5t41 -85t64.5 -69.5t92 -47t124.5 -17.5q70 0 131.5 28.5t108 84t74 138t28.5 190.5q0 81 -24.5 148t-69.5 116t-109.5 76t-144.5 27q-61 0 -110 -16.5t-87 -45.5t-66 -68t-46 -83.5t-26.5 -92.5t-8.5 -95zM403 1172l226 320h212l-308 -320h-130z " />
<glyph unicode="&#xe2;" horiz-adv-x="1244" d="M89 524q0 99 30.5 194t92 169t154 119t216.5 45q63 0 115 -11.5t96 -32.5t81 -52t69 -70l6 141h163l-4 -253v-773h-165l2 144q-24 -32 -60.5 -62.5t-82.5 -53.5t-101.5 -37t-116.5 -14q-86 0 -156 22.5t-125 62t-95.5 92.5t-66.5 114t-39 126.5t-13 129.5zM251 516 q0 -46 6.5 -94.5t21.5 -93.5t41 -85t64.5 -69.5t92 -47t124.5 -17.5q70 0 131.5 28.5t108 84t74 138t28.5 190.5q0 81 -24.5 148t-69.5 116t-109.5 76t-144.5 27q-61 0 -110 -16.5t-87 -45.5t-66 -68t-46 -83.5t-26.5 -92.5t-8.5 -95zM315 1170l228 324h157l229 -324h-132 l-178 216l-178 -216h-126z" />
<glyph unicode="&#xe3;" horiz-adv-x="1244" d="M89 524q0 99 30.5 194t92 169t154 119t216.5 45q63 0 115 -11.5t96 -32.5t81 -52t69 -70l6 141h163l-4 -253v-773h-165l2 144q-24 -32 -60.5 -62.5t-82.5 -53.5t-101.5 -37t-116.5 -14q-86 0 -156 22.5t-125 62t-95.5 92.5t-66.5 114t-39 126.5t-13 129.5zM251 516 q0 -46 6.5 -94.5t21.5 -93.5t41 -85t64.5 -69.5t92 -47t124.5 -17.5q70 0 131.5 28.5t108 84t74 138t28.5 190.5q0 81 -24.5 148t-69.5 116t-109.5 76t-144.5 27q-61 0 -110 -16.5t-87 -45.5t-66 -68t-46 -83.5t-26.5 -92.5t-8.5 -95zM300 1203q4 47 20 85.5t41.5 66.5 t60.5 43t77 15q35 0 67.5 -10.5t63.5 -23.5t60.5 -23.5t58.5 -10.5q34 0 57.5 22.5t29.5 67.5h108q-5 -45 -19.5 -84t-39.5 -68.5t-59 -46t-77 -16.5q-30 0 -62.5 10.5t-65.5 23.5t-65 23.5t-60 10.5q-81 0 -91 -85h-105z" />
<glyph unicode="&#xe4;" horiz-adv-x="1244" d="M89 524q0 99 30.5 194t92 169t154 119t216.5 45q63 0 115 -11.5t96 -32.5t81 -52t69 -70l6 141h163l-4 -253v-773h-165l2 144q-24 -32 -60.5 -62.5t-82.5 -53.5t-101.5 -37t-116.5 -14q-86 0 -156 22.5t-125 62t-95.5 92.5t-66.5 114t-39 126.5t-13 129.5zM251 516 q0 -46 6.5 -94.5t21.5 -93.5t41 -85t64.5 -69.5t92 -47t124.5 -17.5q70 0 131.5 28.5t108 84t74 138t28.5 190.5q0 81 -24.5 148t-69.5 116t-109.5 76t-144.5 27q-61 0 -110 -16.5t-87 -45.5t-66 -68t-46 -83.5t-26.5 -92.5t-8.5 -95zM374 1246v163h164l-1 -163h-163z M706 1246v163h164v-163h-164z" />
<glyph unicode="&#xe5;" horiz-adv-x="1244" d="M89 524q0 99 30.5 194t92 169t154 119t216.5 45q63 0 115 -11.5t96 -32.5t81 -52t69 -70l6 141h163l-4 -253v-773h-165l2 144q-24 -32 -60.5 -62.5t-82.5 -53.5t-101.5 -37t-116.5 -14q-86 0 -156 22.5t-125 62t-95.5 92.5t-66.5 114t-39 126.5t-13 129.5zM251 516 q0 -46 6.5 -94.5t21.5 -93.5t41 -85t64.5 -69.5t92 -47t124.5 -17.5q70 0 131.5 28.5t108 84t74 138t28.5 190.5q0 81 -24.5 148t-69.5 116t-109.5 76t-144.5 27q-61 0 -110 -16.5t-87 -45.5t-66 -68t-46 -83.5t-26.5 -92.5t-8.5 -95zM412 1339q0 41 16.5 76t45 60.5t67 40 t81.5 14.5q44 0 82.5 -15t67 -40.5t44.5 -60.5t16 -74q0 -40 -17 -74.5t-45.5 -60.5t-66.5 -41t-80 -15q-44 0 -82.5 14.5t-67 40t-45 60.5t-16.5 75zM511 1340q0 -46 29.5 -75.5t80.5 -29.5q22 0 42 8.5t35.5 22.5t24.5 33.5t9 40.5q0 22 -8.5 41t-23.5 33t-35.5 22.5 t-43.5 8.5q-22 0 -42 -8.5t-35 -22.5t-24 -33.5t-9 -40.5z" />
<glyph unicode="&#xe6;" horiz-adv-x="1896" d="M142 287q0 73 26.5 129t75 95t116.5 61.5t152 29.5q87 8 176 12t181 6l-1 21q-7 55 -23 104.5t-47 87t-80 60t-122 22.5q-47 0 -91.5 -8t-83.5 -25t-71.5 -45.5t-55.5 -68.5l-97 94q30 51 72 87t94.5 59t113.5 33.5t130 10.5q63 -2 120 -15t104 -39.5t81.5 -66 t52.5 -93.5q31 57 72.5 97.5t91 66.5t104 38t110.5 12q113 0 196 -40.5t138 -110.5t81.5 -162.5t26.5 -195.5q0 -7 -0.5 -22.5t-2.5 -31.5h-748v-21q0 -81 18.5 -140.5t58 -110.5t112 -79t153.5 -29q118 1 199.5 40t156.5 105l54 -137q-169 -142 -415 -140 q-155 -2 -255 55.5t-167 173.5q-33 -73 -78.5 -114.5t-102.5 -67t-125.5 -37t-147.5 -13.5q-78 0 -142.5 21.5t-111.5 62t-73 98.5t-26 131zM302 291q0 -48 19 -82.5t51 -56t73 -31.5t86 -10q97 0 162.5 30t104.5 80.5t55.5 116.5t16.5 138v3q-38 0 -75 -1t-75 -1 q-81 -2 -156 -8.5t-133.5 -26t-93.5 -55.5t-35 -96zM1033 607l596 1q1 1 1 2q0 67 -18.5 120.5t-55 94.5t-90 65.5t-123.5 24.5q-72 0 -128 -24t-95 -65t-61 -95t-26 -124z" />
<glyph unicode="&#xe7;" horiz-adv-x="1046" d="M92 503q0 112 34 212t99 174.5t160 118t217 43.5q121 0 212 -38t142 -105l-75 -107q-48 60 -117 88t-147 28q-83 0 -148 -32t-110.5 -87.5t-69.5 -130t-24 -159.5q0 -84 21 -157t64 -127t109 -84.5t156 -30.5q169 0 303 116l46 -138q-73 -58 -163 -84t-199 -26 q-127 0 -222.5 41.5t-159.5 113t-96 167.5t-32 204zM436 -374l8 85q44 -11 82 -17.5t69 -6.5q63 0 88.5 20t25.5 52q0 41 -30.5 57t-78.5 16q-3 0 -14 -1t-23 -2l-32 -2l33 190h97l-18 -107q42 -1 80 -9.5t66.5 -26.5t45.5 -45.5t17 -67.5t-18.5 -69.5t-51 -49t-76.5 -29 t-95 -9.5q-39 0 -84 6.5t-91 15.5z" />
<glyph unicode="&#xe8;" horiz-adv-x="1173" d="M115 510q0 111 34 209t99 172t158.5 117t213.5 43q118 0 205 -38.5t143 -106t83.5 -160.5t27.5 -202q0 -11 -0.5 -25.5t-1.5 -26.5h-787l3 -45q6 -75 30.5 -137t67.5 -107t104.5 -69.5t140.5 -24.5q106 0 194 37t158 106l51 -137q-83 -72 -184 -105t-229 -33 q-121 0 -216 39.5t-160.5 110t-100 168.5t-34.5 215zM297 609h609l-1 14q-5 65 -25.5 119t-56.5 93t-87.5 60.5t-116.5 21.5q-70 0 -126 -24.5t-96.5 -66.5t-65.5 -98t-34 -119zM356 1492h214l247 -320h-129z" />
<glyph unicode="&#xe9;" horiz-adv-x="1173" d="M115 510q0 111 34 209t99 172t158.5 117t213.5 43q118 0 205 -38.5t143 -106t83.5 -160.5t27.5 -202q0 -11 -0.5 -25.5t-1.5 -26.5h-787l3 -45q6 -75 30.5 -137t67.5 -107t104.5 -69.5t140.5 -24.5q106 0 194 37t158 106l51 -137q-83 -72 -184 -105t-229 -33 q-121 0 -216 39.5t-160.5 110t-100 168.5t-34.5 215zM297 609h609l-1 14q-5 65 -25.5 119t-56.5 93t-87.5 60.5t-116.5 21.5q-70 0 -126 -24.5t-96.5 -66.5t-65.5 -98t-34 -119zM367 1172l226 320h212l-308 -320h-130z" />
<glyph unicode="&#xea;" horiz-adv-x="1173" d="M115 510q0 111 34 209t99 172t158.5 117t213.5 43q118 0 205 -38.5t143 -106t83.5 -160.5t27.5 -202q0 -11 -0.5 -25.5t-1.5 -26.5h-787l3 -45q6 -75 30.5 -137t67.5 -107t104.5 -69.5t140.5 -24.5q106 0 194 37t158 106l51 -137q-83 -72 -184 -105t-229 -33 q-121 0 -216 39.5t-160.5 110t-100 168.5t-34.5 215zM279 1170l228 324h157l229 -324h-132l-178 216l-178 -216h-126zM297 609h609l-1 14q-5 65 -25.5 119t-56.5 93t-87.5 60.5t-116.5 21.5q-70 0 -126 -24.5t-96.5 -66.5t-65.5 -98t-34 -119z" />
<glyph unicode="&#xeb;" horiz-adv-x="1173" d="M115 510q0 111 34 209t99 172t158.5 117t213.5 43q118 0 205 -38.5t143 -106t83.5 -160.5t27.5 -202q0 -11 -0.5 -25.5t-1.5 -26.5h-787l3 -45q6 -75 30.5 -137t67.5 -107t104.5 -69.5t140.5 -24.5q106 0 194 37t158 106l51 -137q-83 -72 -184 -105t-229 -33 q-121 0 -216 39.5t-160.5 110t-100 168.5t-34.5 215zM297 609h609l-1 14q-5 65 -25.5 119t-56.5 93t-87.5 60.5t-116.5 21.5q-70 0 -126 -24.5t-96.5 -66.5t-65.5 -98t-34 -119zM338 1246v163h164l-1 -163h-163zM670 1246v163h164v-163h-164z" />
<glyph unicode="&#xec;" horiz-adv-x="503" d="M21 1492h214l247 -320h-129zM167 1026h165l1 -1026h-165z" />
<glyph unicode="&#xed;" horiz-adv-x="503" d="M34 1172l226 320h212l-308 -320h-130zM167 1026h165l1 -1026h-165z" />
<glyph unicode="&#xee;" horiz-adv-x="503" d="M-54 1170l228 324h157l229 -324h-132l-178 216l-178 -216h-126zM167 1026h165l1 -1026h-165z" />
<glyph unicode="&#xef;" horiz-adv-x="503" d="M5 1246v163h164l-1 -163h-163zM167 1026h165l1 -1026h-165zM337 1246v163h164v-163h-164z" />
<glyph unicode="&#xf0;" d="M88 446q0 99 32 182t91.5 142.5t144 93t189.5 33.5q125 0 220.5 -42t152.5 -132v2q0 172 -36 301h-262v137h206q-43 78 -105 137t-147 106l79 84q113 -44 198 -127t142 -200h197v-137h-145q23 -80 35.5 -168.5t12.5 -185.5q0 -168 -34 -297.5t-99.5 -218t-161 -134 t-217.5 -45.5q-113 0 -204.5 36t-155.5 99t-98.5 149t-34.5 185zM264 441q0 -69 22 -128t62.5 -102.5t97.5 -68t127 -24.5q87 0 149.5 33.5t102.5 88t58.5 123t18.5 138.5v18t1 17q-17 49 -48.5 89.5t-74.5 70t-95.5 45.5t-112.5 16q-79 0 -137 -24t-96 -66.5t-56.5 -100.5 t-18.5 -125z" />
<glyph unicode="&#xf1;" horiz-adv-x="1217" d="M162 1026h167l4 -142q60 85 144.5 126t199.5 41q112 0 185 -37t115.5 -103.5t59 -158.5t16.5 -202v-550h-165v531q0 87 -7.5 158.5t-32 122t-72.5 78t-129 27.5q-75 0 -133 -29t-98 -70t-61.5 -86.5t-21.5 -79.5v-652h-165v779q0 46 -1 90.5t-2 79.5q-2 40 -3 77z M286 1203q4 47 20 85.5t41.5 66.5t60.5 43t77 15q35 0 67.5 -10.5t63.5 -23.5t60.5 -23.5t58.5 -10.5q34 0 57.5 22.5t29.5 67.5h108q-5 -45 -19.5 -84t-39.5 -68.5t-59 -46t-77 -16.5q-30 0 -62.5 10.5t-65.5 23.5t-65 23.5t-60 10.5q-81 0 -91 -85h-105z" />
<glyph unicode="&#xf2;" horiz-adv-x="1238" d="M90 511q0 111 35 209.5t102.5 172t166 116t226.5 42.5q129 0 226.5 -42t162.5 -115t98 -171t33 -210q0 -108 -34.5 -205.5t-101 -171t-164.5 -116.5t-224 -43q-128 0 -226 42t-164.5 114t-101 169.5t-34.5 208.5zM263 509q0 -80 22.5 -152t67 -127.5t111.5 -88t156 -32.5 q88 0 153 33t108 88.5t64 128t21 152.5q0 82 -21 156t-64 129.5t-109 88t-156 32.5q-87 0 -153 -33.5t-110.5 -90t-67 -130.5t-22.5 -154zM388 1492h214l247 -320h-129z" />
<glyph unicode="&#xf3;" horiz-adv-x="1238" d="M90 511q0 111 35 209.5t102.5 172t166 116t226.5 42.5q129 0 226.5 -42t162.5 -115t98 -171t33 -210q0 -108 -34.5 -205.5t-101 -171t-164.5 -116.5t-224 -43q-128 0 -226 42t-164.5 114t-101 169.5t-34.5 208.5zM263 509q0 -80 22.5 -152t67 -127.5t111.5 -88t156 -32.5 q88 0 153 33t108 88.5t64 128t21 152.5q0 82 -21 156t-64 129.5t-109 88t-156 32.5q-87 0 -153 -33.5t-110.5 -90t-67 -130.5t-22.5 -154zM400 1172l226 320h212l-308 -320h-130z" />
<glyph unicode="&#xf4;" horiz-adv-x="1238" d="M90 511q0 111 35 209.5t102.5 172t166 116t226.5 42.5q129 0 226.5 -42t162.5 -115t98 -171t33 -210q0 -108 -34.5 -205.5t-101 -171t-164.5 -116.5t-224 -43q-128 0 -226 42t-164.5 114t-101 169.5t-34.5 208.5zM263 509q0 -80 22.5 -152t67 -127.5t111.5 -88t156 -32.5 q88 0 153 33t108 88.5t64 128t21 152.5q0 82 -21 156t-64 129.5t-109 88t-156 32.5q-87 0 -153 -33.5t-110.5 -90t-67 -130.5t-22.5 -154zM312 1170l228 324h157l229 -324h-132l-178 216l-178 -216h-126z" />
<glyph unicode="&#xf5;" horiz-adv-x="1238" d="M90 511q0 111 35 209.5t102.5 172t166 116t226.5 42.5q129 0 226.5 -42t162.5 -115t98 -171t33 -210q0 -108 -34.5 -205.5t-101 -171t-164.5 -116.5t-224 -43q-128 0 -226 42t-164.5 114t-101 169.5t-34.5 208.5zM263 509q0 -80 22.5 -152t67 -127.5t111.5 -88t156 -32.5 q88 0 153 33t108 88.5t64 128t21 152.5q0 82 -21 156t-64 129.5t-109 88t-156 32.5q-87 0 -153 -33.5t-110.5 -90t-67 -130.5t-22.5 -154zM297 1203q4 47 20 85.5t41.5 66.5t60.5 43t77 15q35 0 67.5 -10.5t63.5 -23.5t60.5 -23.5t58.5 -10.5q34 0 57.5 22.5t29.5 67.5h108 q-5 -45 -19.5 -84t-39.5 -68.5t-59 -46t-77 -16.5q-30 0 -62.5 10.5t-65.5 23.5t-65 23.5t-60 10.5q-81 0 -91 -85h-105z" />
<glyph unicode="&#xf6;" horiz-adv-x="1238" d="M90 511q0 111 35 209.5t102.5 172t166 116t226.5 42.5q129 0 226.5 -42t162.5 -115t98 -171t33 -210q0 -108 -34.5 -205.5t-101 -171t-164.5 -116.5t-224 -43q-128 0 -226 42t-164.5 114t-101 169.5t-34.5 208.5zM263 509q0 -80 22.5 -152t67 -127.5t111.5 -88t156 -32.5 q88 0 153 33t108 88.5t64 128t21 152.5q0 82 -21 156t-64 129.5t-109 88t-156 32.5q-87 0 -153 -33.5t-110.5 -90t-67 -130.5t-22.5 -154zM371 1246v163h164l-1 -163h-163zM703 1246v163h164v-163h-164z" />
<glyph unicode="&#xf7;" horiz-adv-x="1458" d="M198 624h1047l1 -139h-1046zM619 21v210h217v-210h-217zM619 873v210h217v-210h-217z" />
<glyph unicode="&#xf8;" horiz-adv-x="1238" d="M90 511q0 111 35 209.5t102.5 172t166 116t226.5 42.5q85 0 160 -20l104 246l103 -32l-107 -252q64 -33 113 -82.5t81.5 -111.5t49 -134.5t16.5 -151.5q0 -108 -34.5 -205.5t-101 -171t-164.5 -116.5t-224 -43q-85 0 -160 20l-110 -258l-99 32l111 263q-66 33 -116 82 t-83.5 110.5t-51 133.5t-17.5 151zM263 509q0 -52 9.5 -101.5t28.5 -93t47.5 -80.5t66.5 -64l310 732q-25 7 -52 11t-57 4q-87 0 -153 -33.5t-110.5 -90t-67 -130.5t-22.5 -154zM510 124q49 -15 110 -15q88 0 153 33t108 88.5t64 128t21 152.5q0 108 -35.5 198.5 t-109.5 145.5z" />
<glyph unicode="&#xf9;" horiz-adv-x="1217" d="M157 399v627h165v-627q-1 -143 61 -216.5t195 -73.5q72 0 127.5 26t94 71t58.5 104.5t20 125.5v590h165v-780q0 -66 1.5 -124.5t6.5 -121.5h-170l-3 135q-116 -158 -338 -158q-76 0 -134 17.5t-100.5 47.5t-71 71t-45.5 88t-24.5 97.5t-7.5 100.5zM378 1492h214l247 -320 h-129z" />
<glyph unicode="&#xfa;" horiz-adv-x="1217" d="M157 399v627h165v-627q-1 -143 61 -216.5t195 -73.5q72 0 127.5 26t94 71t58.5 104.5t20 125.5v590h165v-780q0 -66 1.5 -124.5t6.5 -121.5h-170l-3 135q-116 -158 -338 -158q-76 0 -134 17.5t-100.5 47.5t-71 71t-45.5 88t-24.5 97.5t-7.5 100.5zM389 1172l226 320h212 l-308 -320h-130z" />
<glyph unicode="&#xfb;" horiz-adv-x="1217" d="M157 399v627h165v-627q-1 -143 61 -216.5t195 -73.5q72 0 127.5 26t94 71t58.5 104.5t20 125.5v590h165v-780q0 -66 1.5 -124.5t6.5 -121.5h-170l-3 135q-116 -158 -338 -158q-76 0 -134 17.5t-100.5 47.5t-71 71t-45.5 88t-24.5 97.5t-7.5 100.5zM301 1170l228 324h157 l229 -324h-132l-178 216l-178 -216h-126z" />
<glyph unicode="&#xfc;" horiz-adv-x="1217" d="M157 399v627h165v-627q-1 -143 61 -216.5t195 -73.5q72 0 127.5 26t94 71t58.5 104.5t20 125.5v590h165v-780q0 -66 1.5 -124.5t6.5 -121.5h-170l-3 135q-116 -158 -338 -158q-76 0 -134 17.5t-100.5 47.5t-71 71t-45.5 88t-24.5 97.5t-7.5 100.5zM360 1246v163h164 l-1 -163h-163zM692 1246v163h164v-163h-164z" />
<glyph unicode="&#xfd;" horiz-adv-x="1069" d="M17 1026h181l332 -855l341 855h175l-454 -1098q-27 -66 -65 -125t-87 -105.5t-108.5 -79t-130.5 -45.5l-92 113q84 22 139 54t90 68t54.5 74.5t32.5 74.5l17 49zM315 1172l226 320h212l-308 -320h-130z" />
<glyph unicode="&#xfe;" horiz-adv-x="1239" d="M158 -427v1882h167v-573q63 84 151 126.5t192 42.5q121 0 209.5 -42t146.5 -113.5t86.5 -166.5t28.5 -202q0 -108 -29.5 -207.5t-88 -175.5t-147 -121.5t-206.5 -45.5q-216 0 -345 158v-562h-165zM323 494q0 -83 21 -153.5t61.5 -122t100.5 -80.5t138 -29q84 0 144.5 34 t99 91t57 131.5t18.5 155.5q0 76 -16 147.5t-52.5 127t-96.5 88.5t-148 33q-92 0 -154.5 -35t-101 -93.5t-55 -135t-16.5 -159.5z" />
<glyph unicode="&#xff;" horiz-adv-x="1069" d="M17 1026h181l332 -855l341 855h175l-454 -1098q-27 -66 -65 -125t-87 -105.5t-108.5 -79t-130.5 -45.5l-92 113q84 22 139 54t90 68t54.5 74.5t32.5 74.5l17 49zM286 1246v163h164l-1 -163h-163zM618 1246v163h164v-163h-164z" />
<glyph unicode="&#x152;" horiz-adv-x="2099" d="M114 729q0 164 49 302t142 238.5t227 157t305 56.5q88 0 166.5 -26.5t147.5 -75.5v75h803v-148h-631v-488h593v-148h-593v-524h661v-148h-833v105q-70 -62 -150.5 -95t-171.5 -33q-167 0 -299.5 53t-225 151t-141.5 237t-49 311zM298 725q0 -126 33.5 -235.5t100 -190.5 t165.5 -127.5t230 -46.5q100 0 180.5 37t143.5 103v954q-62 55 -141.5 85.5t-179.5 30.5q-131 0 -230 -50t-166.5 -134t-101.5 -194.5t-34 -231.5z" />
<glyph unicode="&#x153;" horiz-adv-x="1970" d="M92 509q0 111 35 210t102.5 173.5t166 117.5t224.5 43q148 0 247.5 -58.5t159.5 -173.5q55 115 153.5 173.5t236.5 58.5q110 0 194.5 -38t141.5 -107t86 -166.5t29 -216.5v-53l-755 -2q0 -77 19 -143t57.5 -114.5t96 -76t135.5 -27.5q103 0 188.5 49.5t138.5 133.5 l88 -86q-67 -121 -178.5 -177.5t-247.5 -56.5t-237.5 58.5t-150.5 178.5l-1 -3q-24 -61 -65 -105.5t-94.5 -73t-117.5 -42t-134 -13.5q-123 0 -219.5 42t-162.5 115t-101 171t-35 209zM265 507q0 -81 21.5 -153t65.5 -126.5t110.5 -86.5t157.5 -32q84 0 145.5 33t101.5 88.5 t59 128t19 152.5q0 86 -19.5 160.5t-60 129t-103.5 85.5t-150 31q-85 0 -149.5 -33.5t-108.5 -90t-66.5 -130.5t-22.5 -156zM1113 609h582q1 66 -16 122.5t-51 98t-85 64.5t-120 23t-124.5 -25.5t-95.5 -68t-63 -98.5t-27 -116z" />
<glyph unicode="&#x178;" horiz-adv-x="1266" d="M10 1456h191l431 -729l435 729h191l-543 -871v-585h-172v582zM406 1676v163h164l-1 -163h-163zM738 1676v163h164v-163h-164z" />
<glyph unicode="&#x2c6;" horiz-adv-x="699" d="M35 1170l228 324h157l229 -324h-132l-178 216l-178 -216h-126z" />
<glyph unicode="&#x2dc;" horiz-adv-x="663" d="M14 1203q4 47 20 85.5t41.5 66.5t60.5 43t77 15q35 0 67.5 -10.5t63.5 -23.5t60.5 -23.5t58.5 -10.5q34 0 57.5 22.5t29.5 67.5h108q-5 -45 -19.5 -84t-39.5 -68.5t-59 -46t-77 -16.5q-30 0 -62.5 10.5t-65.5 23.5t-65 23.5t-60 10.5q-81 0 -91 -85h-105z" />
<glyph unicode="&#x2000;" horiz-adv-x="980" />
<glyph unicode="&#x2001;" horiz-adv-x="1960" />
<glyph unicode="&#x2002;" horiz-adv-x="980" />
<glyph unicode="&#x2003;" horiz-adv-x="1960" />
<glyph unicode="&#x2004;" horiz-adv-x="653" />
<glyph unicode="&#x2005;" horiz-adv-x="490" />
<glyph unicode="&#x2006;" horiz-adv-x="326" />
<glyph unicode="&#x2007;" horiz-adv-x="326" />
<glyph unicode="&#x2008;" horiz-adv-x="245" />
<glyph unicode="&#x2009;" horiz-adv-x="392" />
<glyph unicode="&#x200a;" horiz-adv-x="108" />
<glyph unicode="&#x2010;" horiz-adv-x="728" d="M79 626h571l1 -137h-571z" />
<glyph unicode="&#x2011;" horiz-adv-x="728" d="M79 626h571l1 -137h-571z" />
<glyph unicode="&#x2012;" horiz-adv-x="728" d="M79 626h571l1 -137h-571z" />
<glyph unicode="&#x2013;" horiz-adv-x="1085" d="M-6 489v137h1090v-137h-1090z" />
<glyph unicode="&#x2014;" horiz-adv-x="2171" d="M-3 489v137h2163v-137h-2163z" />
<glyph unicode="&#x2018;" horiz-adv-x="553" d="M130 1023l154 440h132l-104 -440h-182z" />
<glyph unicode="&#x2019;" horiz-adv-x="553" d="M140 1023l105 440h181l-154 -440h-132z" />
<glyph unicode="&#x201a;" horiz-adv-x="553" d="M125 -238l106 439h181l-154 -439h-133z" />
<glyph unicode="&#x201c;" horiz-adv-x="1024" d="M179 1023l154 440h133l-105 -440h-182zM528 1023l154 440h133l-104 -440h-183z" />
<glyph unicode="&#x201d;" horiz-adv-x="1024" d="M208 1023l104 440h182l-153 -440h-133zM534 1023l105 440h182l-154 -440h-133z" />
<glyph unicode="&#x201e;" horiz-adv-x="1024" d="M178 -238l105 439h182l-153 -439h-134zM537 -238l104 439h183l-154 -439h-133z" />
<glyph unicode="&#x2022;" horiz-adv-x="989" d="M157 694q0 64 27.5 121.5t74.5 101t109 68.5t130 25q69 0 130 -24.5t106.5 -66.5t72 -98.5t26.5 -119.5q0 -65 -27.5 -122t-74 -100.5t-108 -68.5t-130.5 -25q-70 0 -131.5 24.5t-107 67t-71.5 98.5t-26 119z" />
<glyph unicode="&#x2026;" horiz-adv-x="1620" d="M159 -11v210h217v-210h-217zM699 -11v210h217v-210h-217zM1239 -11v210h217v-210h-217z" />
<glyph unicode="&#x202f;" horiz-adv-x="392" />
<glyph unicode="&#x2039;" horiz-adv-x="642" d="M105 541l274 373h159l-263 -373l255 -370h-156z" />
<glyph unicode="&#x203a;" horiz-adv-x="642" d="M103 171l262 371l-254 372h155l271 -372l-277 -371h-157z" />
<glyph unicode="&#x205f;" horiz-adv-x="490" />
<glyph unicode="&#x20ac;" d="M75 784l22 138h121q21 115 67.5 211.5t117.5 166.5t166 109t214 39q100 0 180 -29t143 -89l-36 -189q-54 81 -130 121.5t-164 40.5q-81 0 -144 -30t-110 -82t-78.5 -121.5t-48.5 -147.5h592l-20 -138h-590q-3 -34 -1.5 -66.5t2.5 -61.5v-2h575l-19 -138h-542 q12 -87 39 -158.5t72.5 -123.5t110.5 -80.5t153 -28.5q75 0 154.5 31t162.5 97l-1 -178q-75 -51 -158 -73.5t-174 -22.5q-123 0 -216.5 39t-160 109.5t-106.5 169.5t-55 219h-135l20 138h102q-2 24 -2.5 54.5t1.5 75.5h-124z" />
<glyph unicode="&#x2122;" horiz-adv-x="1869" d="M70 1350v101h638l-1 -101h-260v-664h-124v664h-253zM819 686v765h190l236 -551l250 551h180v-765h-122v595l-274 -595h-80l-259 594v-594h-121z" />
<glyph unicode="&#xe000;" horiz-adv-x="1025" d="M0 0v1025h1025v-1025h-1025z" />
<glyph unicode="&#xfb01;" horiz-adv-x="1205" d="M45 1026h201l2 112q1 81 16 150t49 119t90.5 78.5t141.5 28.5q21 0 38 -1.5t32.5 -4.5t31.5 -7t34 -8l2 -129q-20 8 -50.5 11.5t-59.5 3.5q-51 0 -82.5 -14t-48.5 -41.5t-23.5 -68t-6.5 -93.5l-1 -136h623v-1026h-165v919h-458v-919h-165v919h-200zM877 1307v155h153 v-155h-153z" />
<glyph unicode="&#xfb02;" horiz-adv-x="1205" d="M45 1026h201l2 112q1 81 16 150t49 119t90.5 78.5t141.5 28.5q21 0 38 -1.5t32.5 -4.5t31.5 -7t34 -8l2 -129q-20 8 -50.5 11.5t-59.5 3.5q-51 0 -82.5 -14t-48.5 -41.5t-23.5 -68t-6.5 -93.5l-1 -136h247l1 -107h-248v-919h-165v919h-200zM870 0v1492h165v-1492h-165z " />
</font>
</defs>
</svg>
