<?xml version="1.0" standalone="no"?>
<!DOCTYPE svg PUBLIC "-//W3C//DTD SVG 1.1//EN" "http://www.w3.org/Graphics/SVG/1.1/DTD/svg11.dtd" >
<svg xmlns="http://www.w3.org/2000/svg">
<metadata></metadata>
<defs>
<font id="questrialregular" horiz-adv-x="1126" >
<font-face units-per-em="2048" ascent="1638" descent="-410" />
<missing-glyph horiz-adv-x="436" />
<glyph horiz-adv-x="2048" />
<glyph horiz-adv-x="2048" />
<glyph unicode="&#xd;" horiz-adv-x="2048" />
<glyph unicode=" "  horiz-adv-x="436" />
<glyph unicode="&#x09;" horiz-adv-x="436" />
<glyph unicode="&#xa0;" horiz-adv-x="436" />
<glyph unicode="!" horiz-adv-x="452" d="M127 0v209h199v-209h-199zM131 1356h191l-39 -981h-113z" />
<glyph unicode="&#x22;" horiz-adv-x="649" d="M96 1356h183l-39 -449h-105zM371 1356h182l-39 -449h-104z" />
<glyph unicode="#" horiz-adv-x="1189" d="M92 344v133h230l40 295h-208v133h227l43 293h133l-43 -293h238l43 293h133l-43 -293h213v-133h-232l-41 -295h211v-133h-229l-41 -293h-133l41 293h-238l-41 -293h-133l41 293h-211zM455 477h237l41 295h-237z" />
<glyph unicode="$" horiz-adv-x="1302" d="M88 406h160q6 -126 104 -194t258 -81v498q-60 14 -102 25.5t-96.5 30t-91.5 37.5t-76 47t-62 60t-38 75t-15 93q0 167 123 268t358 107v156h76v-158q119 -5 212.5 -38t151.5 -87t89.5 -119.5t36.5 -140.5h-158q-13 102 -95.5 167.5t-236.5 74.5v-467q52 -12 84.5 -20.5 t82 -22.5t81 -26.5t73 -31t68 -38t54.5 -46t44 -55.5t26.5 -66t10.5 -79q0 -186 -138.5 -287t-385.5 -104v-203h-76v205q-130 6 -228.5 39.5t-160 90.5t-94 129t-39.5 161zM279 999q0 -37 18 -67.5t45.5 -52t74 -41t89 -32t104.5 -28.5v451q-81 -2 -142.5 -18.5t-96.5 -40 t-56.5 -55t-28.5 -59t-7 -57.5zM686 129q174 0 272.5 61t98.5 179q0 35 -13 64t-40.5 51.5t-57 39.5t-78 33.5t-85.5 27t-97 25.5v-481z" />
<glyph unicode="%" horiz-adv-x="1730" d="M86 977q0 188 81.5 288.5t225.5 100.5q80 -1 140.5 -34t96 -88t53 -122.5t17.5 -144.5q0 -186 -82 -286.5t-225 -100.5q-144 0 -225.5 100t-81.5 287zM211 977q0 -133 47.5 -201.5t134.5 -68.5q49 1 85.5 25.5t56.5 64.5t29 85t9 95q0 133 -47.5 201.5t-132.5 68.5 q-87 0 -134.5 -68.5t-47.5 -201.5zM330 -25l940 1397h129l-940 -1397h-129zM1030 371q0 188 81.5 288.5t225.5 100.5q80 -1 141 -34t96.5 -88t53 -122.5t17.5 -144.5q0 -186 -82.5 -286.5t-225.5 -100.5q-144 0 -225.5 100t-81.5 287zM1155 371q0 -133 47.5 -202t134.5 -69 q65 2 107.5 45t58 100.5t15.5 125.5q0 132 -48 201t-133 69q-87 0 -134.5 -68.5t-47.5 -201.5z" />
<glyph unicode="&#x26;" horiz-adv-x="1187" d="M76 389q0 109 66 196.5t184 131.5q-75 24 -140 106.5t-65 177.5q0 164 118 267.5t332 103.5q81 0 149 -16t115 -43t82 -64t55 -76t29 -83h-161q-17 56 -89.5 99.5t-183.5 43.5q-145 0 -219 -65.5t-74 -168.5q0 -110 76.5 -167.5t190.5 -57.5h329v90h144v-90h133v-137 h-133v-260q0 -176 -124.5 -284.5t-338.5 -108.5q-197 0 -336 114t-139 291zM229 385q0 -108 90.5 -186t231.5 -78q153 0 236 71t83 173v272h-348q-127 0 -210 -73.5t-83 -178.5z" />
<glyph unicode="'" horiz-adv-x="374" d="M96 1356h183l-39 -449h-105z" />
<glyph unicode="(" horiz-adv-x="501" d="M72 575q0 454 262 859h139q-246 -394 -246 -859q0 -467 246 -858h-139q-262 405 -262 858z" />
<glyph unicode=")" horiz-adv-x="501" d="M29 -283q245 389 245 858q0 466 -245 859h139q262 -405 262 -859q0 -453 -262 -858h-139z" />
<glyph unicode="*" horiz-adv-x="763" d="M98 1102l39 123l205 -92l-25 223h129l-24 -223l205 92l39 -123l-220 -45l152 -168l-104 -76l-111 195l-113 -195l-104 76l151 166z" />
<glyph unicode="+" d="M102 416v133h394v416h133v-416h395v-133h-395v-416h-133v416h-394z" />
<glyph unicode="," horiz-adv-x="450" d="M23 -272l118 436h201l-180 -436h-139z" />
<glyph unicode="-" horiz-adv-x="729" d="M109 530v150h512v-150h-512z" />
<glyph unicode="." horiz-adv-x="415" d="M109 0v209h198v-209h-198z" />
<glyph unicode="/" horiz-adv-x="759" d="M74 -66l469 1459h143l-469 -1459h-143z" />
<glyph unicode="0" d="M88 678q0 342 118.5 518t356.5 176q108 -2 192 -41t136.5 -103t86.5 -155t47 -187t13 -208q0 -342 -118.5 -518t-356.5 -176t-356.5 176t-118.5 518zM242 678q0 -275 77 -410t244 -135q81 2 140.5 36t93.5 85t54.5 126t27 144t6.5 154q0 275 -77.5 410t-244.5 135 t-244 -135t-77 -410z" />
<glyph unicode="1" d="M276 1208v148h441v-1356h-154v1208h-287z" />
<glyph unicode="2" d="M88 987q17 173 149 279t322 106q214 0 338.5 -112.5t124.5 -286.5q0 -77 -39 -152t-102 -136t-139.5 -120t-154 -112t-142 -103t-108 -102.5t-48.5 -100.5h729v-147h-912v84q0 81 42 158t109 139t148.5 121t163 115t148.5 110t109 116.5t42 125.5q0 120 -79.5 187 t-225.5 67q-136 0 -221 -61.5t-100 -174.5h-154z" />
<glyph unicode="3" d="M84 358h156q15 -95 109.5 -160t217.5 -65q141 0 224 72t83 180q0 105 -83 181.5t-209 76.5h-156v141h137q109 0 187.5 63t78.5 159q0 99 -70 158t-200 59q-120 0 -197.5 -55.5t-91.5 -137.5h-149q7 64 39 124t85 109t134 79t176 30q197 0 312.5 -99.5t115.5 -260.5 q0 -96 -65 -180.5t-140 -108.5q117 -44 183.5 -134t66.5 -200q0 -179 -133 -292t-328 -113q-190 0 -329 108t-154 266z" />
<glyph unicode="4" d="M63 346v150l570 860h231v-873h183v-137h-183v-346h-153v346h-648zM207 483h504v742z" />
<glyph unicode="5" d="M86 340h158q27 -87 106 -147t217 -60q136 0 221.5 86.5t85.5 214.5q0 134 -84.5 217.5t-218.5 83.5q-85 0 -157 -32t-111 -76l-141 86l92 643h707v-148h-568l-61 -393q45 29 111 46.5t128 17.5q204 0 330.5 -124.5t126.5 -320.5q0 -188 -132 -319t-323 -131 q-100 0 -181.5 24t-132.5 60.5t-89 86.5t-56 94t-28 91z" />
<glyph unicode="6" d="M88 678q0 327 131 510.5t383 183.5q93 0 168.5 -28.5t124.5 -77.5t79 -105.5t44 -120.5h-172q-60 183 -244 183q-122 0 -204.5 -75t-119 -196t-36.5 -280q50 86 146 139t208 53q195 0 328 -124.5t133 -315.5q0 -188 -136.5 -314t-330.5 -126q-246 0 -374 179.5 t-128 514.5zM276 434q0 -133 90 -217t224 -84q131 0 222 82.5t91 208.5q0 125 -91.5 210t-221.5 85q-131 0 -222.5 -80.5t-91.5 -204.5z" />
<glyph unicode="7" d="M96 1208v148h940v-174l-565 -1182h-178l586 1208h-783z" />
<glyph unicode="8" d="M78 389q0 117 70 213.5t190 142.5q-82 30 -144.5 102.5t-62.5 182.5q0 156 113.5 249t318.5 93t318.5 -93t113.5 -249q0 -110 -62.5 -182.5t-144.5 -102.5q120 -46 190.5 -142.5t70.5 -213.5q0 -183 -129 -294t-357 -111t-356.5 111t-128.5 294zM231 391q0 -120 90 -190 t242 -70t242 70t90 190q0 128 -95 203.5t-237 75.5t-237 -75.5t-95 -203.5zM285 1022q0 -71 44 -120.5t105 -70t129 -20.5t129 20.5t105.5 70t44.5 120.5q0 95 -77 149t-202 54t-201.5 -54t-76.5 -149z" />
<glyph unicode="9" d="M70 932q0 188 136.5 314t330.5 126q246 0 373.5 -179.5t127.5 -514.5q0 -327 -131 -510.5t-383 -183.5q-93 0 -168.5 28.5t-124 77t-78.5 105t-44 120.5h172q60 -182 243 -182q92 0 162.5 42.5t113 118.5t64 174t21.5 216q-50 -86 -146.5 -139t-208.5 -53 q-194 0 -327 124.5t-133 315.5zM223 932q0 -125 92 -210t222 -85q131 0 222 80.5t91 204.5q0 133 -89.5 217t-223.5 84q-131 0 -222.5 -82.5t-91.5 -208.5z" />
<glyph unicode=":" horiz-adv-x="415" d="M109 0v209h198v-209h-198zM109 815v209h198v-209h-198z" />
<glyph unicode=";" horiz-adv-x="501" d="M51 -272l119 436h201l-181 -436h-139zM164 815v209h198v-209h-198z" />
<glyph unicode="&#x3c;" d="M53 451v129l985 436v-160l-829 -340l829 -340v-160z" />
<glyph unicode="=" d="M117 211v137h893v-137h-893zM117 616v138h893v-138h-893z" />
<glyph unicode="&#x3e;" d="M86 16v160l829 340l-829 340v160l985 -436v-129z" />
<glyph unicode="?" horiz-adv-x="1054" d="M80 954q5 85 38.5 160.5t90.5 133t140.5 91t182.5 33.5q106 0 189 -31.5t132 -85t74 -118.5t25 -136q0 -65 -18.5 -119.5t-48.5 -94t-66 -75.5t-72 -70.5t-66 -71.5t-48.5 -87t-18.5 -108h-149q0 68 19 126.5t49 101t66.5 80t73 72.5t66.5 70t49 80t19 96 q0 41 -13.5 79.5t-41.5 73.5t-81.5 56t-125.5 21q-143 0 -226.5 -80.5t-93.5 -196.5h-145zM440 0v209h199v-209h-199z" />
<glyph unicode="@" horiz-adv-x="1744" d="M102 592q0 165 69.5 322t185 273.5t274 187.5t327.5 71q138 0 266.5 -53.5t224 -145t153 -221t57.5 -272.5q0 -126 -32 -224.5t-86.5 -157.5t-121 -89.5t-141.5 -30.5q-52 0 -90.5 14.5t-56.5 35.5t-29 42.5t-13 35.5l-2 15q-117 -143 -296 -143q-168 0 -258.5 94.5 t-90.5 245.5q0 145 62 259.5t168 176.5t235 62q192 0 269 -144l20 131h123l-96 -598q-2 -10 -2 -26q0 -18 3.5 -34t14 -34.5t33.5 -29.5t57 -11q119 0 186.5 99.5t67.5 301.5q0 130 -49 246.5t-132.5 199t-199 131t-244.5 48.5q-152 0 -295.5 -63t-249.5 -168t-170.5 -249 t-64.5 -298q0 -130 49 -245t132.5 -197t199 -129.5t244.5 -47.5q139 0 247 37t203 115l45 -62q-205 -165 -495 -165q-150 0 -282 55.5t-223 150t-143.5 221.5t-52.5 267zM565 604q0 -109 66 -175.5t192 -66.5q97 0 171.5 53t111.5 136.5t37 181.5q0 108 -61.5 178t-174.5 70 q-152 0 -247 -104t-95 -273z" />
<glyph unicode="A" horiz-adv-x="1355" d="M6 0l576 1356h192l576 -1356h-170l-166 393h-672l-166 -393h-170zM401 535h553l-276 661z" />
<glyph unicode="B" horiz-adv-x="1355" d="M166 0v1356h608q92 0 166.5 -22t122.5 -57t80 -83t45.5 -96.5t13.5 -100.5q0 -223 -182 -305q47 -15 88.5 -40.5t80 -64.5t61 -98.5t22.5 -132.5q0 -159 -119.5 -257.5t-343.5 -98.5h-643zM319 145h506q139 0 216 59t77 165q0 103 -78.5 172t-230.5 69h-490v-465z M319 750h455q116 0 195.5 59t79.5 176q0 94 -64 159.5t-194 65.5h-472v-460z" />
<glyph unicode="C" horiz-adv-x="1413" d="M80 678q0 144 45.5 270.5t128.5 220.5t207.5 148.5t273.5 54.5q225 0 387 -115.5t228 -306.5h-162q-54 129 -165.5 201t-274.5 72q-160 0 -278.5 -73t-177.5 -195.5t-59 -276.5t59 -276.5t177.5 -195.5t278.5 -73q163 0 274.5 72t165.5 201h162q-66 -191 -228 -306.5 t-387 -115.5q-149 0 -273.5 54.5t-207.5 148.5t-128.5 220.5t-45.5 270.5z" />
<glyph unicode="D" horiz-adv-x="1441" d="M166 0v1356h571q97 0 189 -29.5t170.5 -87.5t137.5 -138.5t92.5 -189.5t33.5 -233t-33.5 -233t-92.5 -189.5t-137.5 -138.5t-170.5 -87.5t-189 -29.5h-571zM319 145h412q106 0 196 42.5t150.5 115t94.5 169.5t34 206q0 146 -57.5 266.5t-167 193t-250.5 72.5h-412v-1065z " />
<glyph unicode="E" horiz-adv-x="1245" d="M166 0v1356h997v-148h-844v-454h754v-150h-754v-457h844v-147h-997z" />
<glyph unicode="F" horiz-adv-x="1193" d="M166 0v1356h979v-148h-826v-471h736v-149h-736v-588h-153z" />
<glyph unicode="G" horiz-adv-x="1480" d="M80 678q0 144 47.5 271t133 220.5t211.5 148t276 54.5q213 0 376 -105t240 -280h-168q-63 112 -174 174t-262 62q-241 0 -384 -155t-143 -390q0 -154 61 -276.5t181 -195.5t281 -73q125 0 233 52t177 156.5t69 240.5h-496v139h637v-721h-141v240q-73 -111 -197 -183.5 t-295 -72.5q-152 0 -278 54.5t-209.5 148.5t-129.5 220.5t-46 270.5z" />
<glyph unicode="H" horiz-adv-x="1427" d="M166 0v1356h153v-602h789v602h154v-1356h-154v604h-789v-604h-153z" />
<glyph unicode="I" horiz-adv-x="485" d="M166 0v1356h153v-1356h-153z" />
<glyph unicode="J" horiz-adv-x="1079" d="M31 362h159q14 -91 91.5 -160t210.5 -69q280 0 280 322v901h154v-907q0 -94 -24 -174t-74 -147t-138.5 -105.5t-206.5 -38.5q-106 0 -191 32.5t-138.5 87.5t-84.5 120.5t-38 137.5z" />
<glyph unicode="K" horiz-adv-x="1312" d="M166 0v1356h153v-707l754 707h217l-577 -545l610 -811h-193l-530 707l-281 -263v-444h-153z" />
<glyph unicode="L" horiz-adv-x="1091" d="M166 0v1356h153v-1209h740v-147h-893z" />
<glyph unicode="M" horiz-adv-x="1650" d="M166 0v1356h178l485 -643l478 643h178v-1356h-154v1122l-502 -645l-510 645v-1122h-153z" />
<glyph unicode="N" horiz-adv-x="1501" d="M166 0v1356h178l838 -1141v1141h153v-1356h-178l-838 1145v-1145h-153z" />
<glyph unicode="O" horiz-adv-x="1536" d="M80 678q0 143 50 270.5t139 221t218.5 148t280.5 54.5t280.5 -54.5t218.5 -148t139 -221t50 -270.5t-50 -270.5t-139 -221t-218.5 -148t-280.5 -54.5t-280.5 54.5t-218.5 148t-139 221t-50 270.5zM233 678q0 -153 64 -276t187 -196t284 -73t284 73t187 196t64 276 t-64 276t-187 196t-284 73t-284 -73t-187 -196t-64 -276z" />
<glyph unicode="P" horiz-adv-x="1286" d="M166 0v1356h610q216 0 341.5 -118t125.5 -318q0 -201 -125.5 -319t-341.5 -118h-457v-483h-153zM319 627h447q158 0 241 77.5t83 215.5q0 137 -83 213.5t-241 76.5h-447v-583z" />
<glyph unicode="Q" horiz-adv-x="1536" d="M80 678q0 143 50 270.5t139 221t218.5 148t280.5 54.5t280.5 -54.5t218.5 -148t139 -221t50 -270.5q0 -260 -155.5 -450.5t-405.5 -231.5q17 -32 43 -61.5t65 -59.5t96 -47.5t124 -17.5q131 0 247 92l82 -111q-143 -113 -331 -113q-151 0 -283.5 85t-198.5 223 q-193 7 -344.5 100.5t-233 248.5t-81.5 343zM233 678q0 -153 64 -276t187 -196t284 -73t284 73t187 196t64 276t-64 276t-187 196t-284 73t-284 -73t-187 -196t-64 -276z" />
<glyph unicode="R" horiz-adv-x="1370" d="M166 0v1356h649q209 0 333 -115t124 -309q0 -309 -328 -385l356 -547h-182l-327 520h-472v-520h-153zM319 666h469q47 0 90.5 7t88 26t77.5 48t53.5 76.5t20.5 108.5q0 128 -87.5 203t-233.5 75h-478v-544z" />
<glyph unicode="S" horiz-adv-x="1259" d="M66 406h159q4 -72 39 -126t95 -86.5t136 -48.5t167 -16q175 0 273.5 61t98.5 179q0 59 -40 103t-105 69.5t-148.5 49.5t-170.5 42t-170.5 48.5t-148.5 68t-105 101t-40 146.5q0 171 131 273t379 102q130 0 233 -31.5t166.5 -86t98 -123t39.5 -146.5h-158 q-13 109 -107.5 176.5t-271.5 67.5q-88 0 -155 -15.5t-105 -39t-61.5 -56t-31 -60.5t-7.5 -59q0 -50 32 -88.5t86 -63t123.5 -44.5t147 -38t155 -38.5t147 -50t123.5 -68t86 -98t32 -135.5q0 -187 -142 -289t-395 -102q-118 0 -212.5 20.5t-161 57.5t-112.5 90.5t-69.5 116 t-29.5 137.5z" />
<glyph unicode="T" horiz-adv-x="1157" d="M29 1208v148h1099v-148h-473v-1208h-153v1208h-473z" />
<glyph unicode="U" horiz-adv-x="1452" d="M150 584v772h153v-776q0 -114 35.5 -202t95.5 -140t134 -78.5t157 -26.5q66 0 126.5 16t115.5 51t95 86t63.5 126.5t23.5 167.5v776h154v-772q0 -268 -161 -434t-417 -166q-255 0 -415 165.5t-160 434.5z" />
<glyph unicode="V" horiz-adv-x="1286" d="M6 1356h168l469 -1182l469 1182h168l-549 -1356h-176z" />
<glyph unicode="W" horiz-adv-x="1961" d="M18 1356h162l348 -1139l365 1139h176l365 -1139l348 1139h162l-422 -1356h-174l-367 1139l-367 -1139h-174z" />
<glyph unicode="X" horiz-adv-x="1255" d="M-6 0l541 700l-504 656h194l402 -533l403 533h195l-504 -656l541 -700h-195l-440 582l-439 -582h-194z" />
<glyph unicode="Y" horiz-adv-x="1288" d="M-2 1356h186l459 -660l459 660h186l-567 -819v-537h-154v537z" />
<glyph unicode="Z" horiz-adv-x="1196" d="M59 0v145l885 1067h-872v144h1061v-148l-885 -1065h885v-143h-1074z" />
<glyph unicode="[" horiz-adv-x="573" d="M135 -272v1663h383v-127h-248v-1409h248v-127h-383z" />
<glyph unicode="\" horiz-adv-x="759" d="M74 1393h143l469 -1459h-143z" />
<glyph unicode="]" horiz-adv-x="573" d="M55 -145h248v1409h-248v127h383v-1663h-383v127z" />
<glyph unicode="^" horiz-adv-x="1024" d="M154 727l305 641h125l305 -641h-144l-223 440l-225 -440h-143z" />
<glyph unicode="_" horiz-adv-x="1228" d="M102 -150h1024v-112h-1024v112z" />
<glyph unicode="`" horiz-adv-x="696" d="M190 1382h220l125 -215h-125z" />
<glyph unicode="a" horiz-adv-x="1218" d="M70 512q0 146 60.5 266t174.5 191t260 71q242 0 367 -182v166h153v-1024h-153v164q-123 -180 -367 -180q-146 0 -260 71t-174.5 191t-60.5 266zM223 512q0 -164 99 -276.5t264 -112.5q164 0 259 112t95 277t-95 277t-259 112q-165 0 -264 -112.5t-99 -276.5z" />
<glyph unicode="b" horiz-adv-x="1216" d="M133 0v1434h154v-576q125 182 366 182q146 0 260 -71t175 -191t61 -266t-61 -266t-175 -191t-260 -71q-243 0 -366 180v-164h-154zM279 512q0 -165 95 -277t259 -112q165 0 263.5 112.5t98.5 276.5t-98.5 276.5t-263.5 112.5q-164 0 -259 -112t-95 -277z" />
<glyph unicode="c" horiz-adv-x="1114" d="M70 512q0 147 61 266.5t176.5 190.5t265.5 71q179 0 309 -93t175 -245h-166q-36 91 -113.5 145t-183.5 54q-166 0 -268.5 -113t-102.5 -276t102.5 -276t268.5 -113q106 0 183.5 54t113.5 145h166q-45 -152 -175 -245t-309 -93q-150 0 -265.5 71t-176.5 190.5t-61 266.5z " />
<glyph unicode="d" horiz-adv-x="1218" d="M70 512q0 146 60.5 266t174.5 191t260 71q242 0 367 -182v576h153v-1434h-153v164q-123 -180 -367 -180q-146 0 -260 71t-174.5 191t-60.5 266zM223 512q0 -164 99 -276.5t264 -112.5q164 0 259 112t95 277t-95 277t-259 112q-165 0 -264 -112.5t-99 -276.5z" />
<glyph unicode="e" horiz-adv-x="1140" d="M70 512q0 147 61 266.5t177.5 190.5t269.5 71q152 0 269 -71t177.5 -190.5t60.5 -266.5v-61h-858q18 -142 115.5 -235t247.5 -93q103 0 178.5 46t118.5 126h168q-57 -145 -174 -228t-293 -83q-230 0 -374 152t-144 376zM229 594h697q-23 136 -114 221.5t-234 85.5 t-234.5 -85.5t-114.5 -221.5z" />
<glyph unicode="f" horiz-adv-x="628" d="M27 889v135h176v90q0 165 99.5 250.5t279.5 85.5h12v-145h-21q-109 0 -163 -49.5t-54 -153.5v-78h238v-135h-238v-889h-153v889h-176z" />
<glyph unicode="g" horiz-adv-x="1218" d="M70 520q0 146 60.5 264t174.5 187t260 69q244 0 367 -180v164h153v-993q0 -219 -126 -336t-357 -117q-188 0 -310.5 80.5t-166.5 218.5h170q31 -76 107.5 -118t191.5 -42q174 0 256 81.5t82 242.5v141q-125 -182 -367 -182q-146 0 -260 69t-174.5 187t-60.5 264zM223 520 q0 -163 98.5 -272t264.5 -109q163 0 258.5 108.5t95.5 272.5t-95.5 272.5t-258.5 108.5q-166 0 -264.5 -109t-98.5 -272z" />
<glyph unicode="h" horiz-adv-x="1159" d="M133 0v1434h154v-570q62 82 143 129t197 47q80 0 153 -29t130.5 -83t91.5 -140t34 -192v-596h-153v592q0 139 -80 224t-207 85q-130 0 -219.5 -87.5t-89.5 -223.5v-590h-154z" />
<glyph unicode="i" horiz-adv-x="419" d="M127 1196v201h166v-201h-166zM133 0v1024h154v-1024h-154z" />
<glyph unicode="j" horiz-adv-x="419" d="M127 1196v201h166v-201h-166zM133 -406v1430h154v-1430h-154z" />
<glyph unicode="k" horiz-adv-x="1028" d="M133 0v1434h154v-918l493 508h215l-411 -403l442 -621h-188l-359 514l-192 -190v-324h-154z" />
<glyph unicode="l" horiz-adv-x="419" d="M133 0v1434h154v-1434h-154z" />
<glyph unicode="m" horiz-adv-x="1777" d="M133 0v1024h154v-156q41 72 119 122t192 50q102 0 189.5 -54.5t136.5 -151.5q19 32 45 62.5t68.5 65.5t105 56.5t133.5 21.5q74 0 142.5 -30t121 -83.5t84 -134t31.5 -174.5v-618h-154v614q0 127 -72.5 207t-181.5 80q-118 0 -197 -78t-79 -211v-612h-154v614 q0 127 -72.5 207t-181.5 80q-118 0 -197 -78t-79 -211v-612h-154z" />
<glyph unicode="n" horiz-adv-x="1159" d="M133 0v1024h154v-160q62 82 143 129t197 47q80 0 153 -29t130.5 -83t91.5 -140t34 -192v-596h-153v592q0 139 -80 224t-207 85q-130 0 -219.5 -87.5t-89.5 -223.5v-590h-154z" />
<glyph unicode="o" horiz-adv-x="1155" d="M70 512q0 147 61 266.5t177.5 190.5t269.5 71q152 0 269 -71t177.5 -190.5t60.5 -266.5t-60.5 -266.5t-177.5 -190.5t-269 -71q-153 0 -269.5 71t-177.5 190.5t-61 266.5zM223 512q0 -165 95.5 -277t259.5 -112t259 112t95 277t-95 277t-259 112t-259.5 -112t-95.5 -277z " />
<glyph unicode="p" horiz-adv-x="1216" d="M133 -406v1430h154v-164q123 180 366 180q146 0 260 -71t175 -191t61 -266t-61 -266t-175 -191t-260 -71q-241 0 -366 182v-572h-154zM279 512q0 -165 95 -277t259 -112q165 0 263.5 112.5t98.5 276.5t-98.5 276.5t-263.5 112.5q-164 0 -259 -112t-95 -277z" />
<glyph unicode="q" horiz-adv-x="1218" d="M70 512q0 146 60.5 266t174.5 191t260 71q244 0 367 -180v164h153v-1430h-153v572q-125 -182 -367 -182q-146 0 -260 71t-174.5 191t-60.5 266zM223 512q0 -164 99 -276.5t264 -112.5q164 0 259 112t95 277t-95 277t-259 112q-165 0 -264 -112.5t-99 -276.5z" />
<glyph unicode="r" horiz-adv-x="706" d="M133 0v1024h154v-252q7 25 22 55t46.5 69t71.5 70t102.5 52.5t134.5 21.5h10v-153h-19q-110 0 -195.5 -62.5t-129 -161t-43.5 -212.5v-451h-154z" />
<glyph unicode="s" horiz-adv-x="987" d="M61 322h160q8 -88 78.5 -147.5t208.5 -59.5q30 0 60 3t68 13.5t66.5 27.5t48 47t19.5 70q0 52 -37.5 87t-98 53.5t-133 34t-145 35.5t-133 49t-98 83t-37.5 130q0 140 102.5 216t298.5 76q98 0 173.5 -24t122.5 -65.5t73 -91.5t33 -109h-156q-22 159 -250 159 q-243 0 -243 -147q0 -44 29.5 -75.5t77.5 -48t109 -32.5t125 -27.5t125 -34t109 -52t77.5 -81t29.5 -120.5q0 -147 -112 -227t-306 -80q-204 0 -320.5 97t-124.5 241z" />
<glyph unicode="t" horiz-adv-x="667" d="M35 889v135h209v367h153v-367h236v-135h-236v-889h-153v889h-209z" />
<glyph unicode="u" horiz-adv-x="1159" d="M123 428v596h153v-592q0 -139 80 -224t207 -85q130 0 219.5 87.5t89.5 223.5v590h154v-1024h-154v160q-62 -82 -143 -129t-197 -47q-80 0 -153 29t-130.5 83t-91.5 140t-34 192z" />
<glyph unicode="v" horiz-adv-x="1001" d="M10 1024h168l324 -860l321 860h168l-399 -1024h-180z" />
<glyph unicode="w" horiz-adv-x="1544" d="M18 1024h164l246 -834l260 834h168l260 -834l246 834h164l-322 -1024h-176l-256 817l-256 -817h-176z" />
<glyph unicode="x" horiz-adv-x="987" d="M8 0l395 528l-370 496h196l265 -387l262 387h196l-370 -496l397 -528h-197l-288 418l-291 -418h-195z" />
<glyph unicode="y" horiz-adv-x="1017" d="M8 1024h170l330 -840l336 840h168l-606 -1430h-166l186 420z" />
<glyph unicode="z" horiz-adv-x="937" d="M63 0v145l613 738h-604v141h798v-143l-614 -738h614v-143h-807z" />
<glyph unicode="{" horiz-adv-x="602" d="M43 512v94q57 0 109.5 51.5t52.5 143.5v295q0 58 9.5 103t24.5 76t41.5 53t52 34t65 18.5t72.5 8.5t81 2v-111q-123 -2 -167 -40.5t-44 -145.5v-271q0 -194 -143 -264q143 -70 143 -264v-270q0 -107 44 -146.5t167 -40.5v-110q-48 0 -81 2t-72.5 8.5t-65 18.5t-52 34 t-41.5 53t-24.5 76t-9.5 103v294q0 92 -52.5 143.5t-109.5 51.5z" />
<glyph unicode="|" horiz-adv-x="391" d="M133 -367v1899h125v-1899h-125z" />
<glyph unicode="}" horiz-adv-x="602" d="M51 -162q123 1 167 40.5t44 146.5v270q0 194 144 264q-144 70 -144 264v271q0 107 -44 145.5t-167 40.5v111q48 0 81 -2t72.5 -8.5t65 -18.5t52 -34t41.5 -53t24.5 -76t9.5 -103v-295q0 -92 52.5 -143.5t109.5 -51.5v-94q-57 0 -109.5 -51.5t-52.5 -143.5v-294 q0 -58 -9.5 -103t-24.5 -76t-41.5 -53t-52 -34t-65 -18.5t-72.5 -8.5t-81 -2v110z" />
<glyph unicode="~" horiz-adv-x="1073" d="M98 440q33 275 230 275q60 0 148 -31.5t167 -62.5t117 -31q20 0 37 3.5t30.5 11.5t24.5 15t19.5 20t14 21t11 23t7.5 20t6 19l3 14h66q-5 -38 -11.5 -67.5t-23 -71t-39.5 -68.5t-62.5 -47t-90.5 -20q-61 0 -150 30.5t-168 61.5t-117 31q-30 0 -54.5 -9t-39 -20t-27 -31.5 t-17 -31t-11 -32t-6.5 -22.5h-64z" />
<glyph unicode="&#xa1;" horiz-adv-x="423" d="M113 815v209h198v-209h-198zM117 -332l39 981h112l39 -981h-190z" />
<glyph unicode="&#xa2;" horiz-adv-x="1175" d="M98 512q0 142 57.5 259t166.5 189.5t251 79.5v179h74v-181q162 -12 279 -103.5t159 -232.5h-165q-35 86 -105.5 139t-167.5 60v-778q97 7 167.5 60t105.5 139h165q-42 -141 -159 -232.5t-279 -103.5v-193h-74v191q-142 7 -251 79.5t-166.5 189.5t-57.5 259zM252 512 q0 -150 87.5 -259.5t233.5 -127.5v774q-146 -18 -233.5 -127.5t-87.5 -259.5z" />
<glyph unicode="&#xa3;" horiz-adv-x="1177" d="M98 0v125l164 18v510h-145v119h145v148q0 93 23 171.5t70.5 143t131 101t195.5 36.5q93 0 166.5 -25t120.5 -70t75.5 -98.5t42.5 -117.5h-145q-56 166 -254 166q-71 0 -123.5 -20t-81 -49.5t-45.5 -74.5t-21.5 -83.5t-4.5 -86.5v-141h303v-119h-303v-510h620v-143h-934z " />
<glyph unicode="&#xa4;" horiz-adv-x="1161" d="M98 272l131 131q-84 117 -84 261t84 258l-131 133l92 92l132 -133q117 84 260 84q144 0 258 -84l133 133l90 -92l-131 -133q84 -114 84 -258t-84 -261l131 -131l-90 -92l-133 133q-113 -86 -258 -86q-144 0 -260 86l-132 -133zM270 664q0 -129 91.5 -220.5t220.5 -91.5 t220 91.5t91 220.5t-91 220t-220 91t-220.5 -91t-91.5 -220z" />
<glyph unicode="&#xa5;" horiz-adv-x="1345" d="M76 1356h186l410 -660l411 660h187l-402 -631h277v-133h-361l-34 -55v-148h395v-133h-395v-256h-154v256h-395v133h395v148l-35 55h-360v133h274z" />
<glyph unicode="&#xa7;" horiz-adv-x="1062" d="M96 610q0 177 158 242q-78 95 -78 205q0 73 25 130.5t63 91t89.5 55t98 29t95.5 7.5q164 0 273.5 -95t121.5 -231h-141q-13 77 -82.5 133t-177.5 56q-96 0 -155.5 -42t-59.5 -118q0 -52 35.5 -101t92.5 -89.5t126 -81.5t137.5 -84t125.5 -89.5t92.5 -106.5t35.5 -126 q0 -179 -160 -243q80 -90 80 -203q0 -73 -25.5 -130.5t-65 -91t-92 -55.5t-100 -29.5t-96.5 -7.5q-165 0 -278 95t-125 231h141q13 -75 86.5 -131.5t181.5 -56.5q98 0 160.5 42t62.5 117q0 52 -35.5 101t-92.5 89.5t-126 81.5t-137.5 84t-125.5 89.5t-92.5 106.5t-35.5 126z M246 647q0 -55 31.5 -102.5t88 -87.5t115.5 -73.5t133.5 -77.5t122.5 -83q84 41 84 135q0 54 -31.5 101.5t-88 87.5t-115.5 74t-133.5 78t-122.5 83q-84 -43 -84 -135z" />
<glyph unicode="&#xa8;" horiz-adv-x="866" d="M152 1186v170h182v-170h-182zM473 1186v170h182v-170h-182z" />
<glyph unicode="&#xa9;" horiz-adv-x="1595" d="M96 674q0 143 55.5 273t149.5 224t223.5 149.5t272.5 55.5t272.5 -55.5t224 -149.5t150 -224t55.5 -273q0 -190 -94 -351.5t-256 -255.5t-352 -94t-351.5 94t-255.5 255.5t-94 351.5zM197 674q0 -122 47.5 -233t127.5 -191.5t191.5 -128t233.5 -47.5t233.5 47.5t192 128 t128.5 191.5t48 233t-47.5 233.5t-128.5 192.5t-192.5 128.5t-233.5 47.5t-233.5 -47.5t-191.5 -128.5t-127.5 -192.5t-47.5 -233.5zM414 674q0 176 103.5 287.5t279.5 111.5q95 0 171 -31t129 -97.5t68 -162.5h-137q-14 75 -73 118.5t-148 43.5q-117 0 -185.5 -74.5 t-68.5 -195.5q0 -122 68.5 -196.5t185.5 -74.5q89 0 148 43.5t73 118.5h137q-22 -144 -122 -218.5t-246 -74.5q-175 0 -279 112.5t-104 289.5z" />
<glyph unicode="&#xaa;" horiz-adv-x="759" d="M76 1083q0 120 73 200.5t193 80.5q126 0 195 -96v88h106v-545h-106v88q-67 -96 -195 -96q-120 0 -193 80t-73 200zM182 1083q0 -82 46.5 -132t133.5 -50q80 0 128.5 51.5t48.5 130.5q0 80 -48.5 131.5t-128.5 51.5q-86 0 -133 -51t-47 -132z" />
<glyph unicode="&#xab;" horiz-adv-x="997" d="M80 530l266 414h182l-280 -414l280 -413h-182zM457 530l266 414h182l-280 -414l280 -413h-182z" />
<glyph unicode="&#xac;" horiz-adv-x="1214" d="M127 657v140h956v-416h-147v276h-809z" />
<glyph unicode="&#xad;" horiz-adv-x="729" d="M109 530v150h512v-150h-512z" />
<glyph unicode="&#xae;" horiz-adv-x="1595" d="M96 674q0 143 55.5 273t149.5 224t223.5 149.5t272.5 55.5t272.5 -55.5t224 -149.5t150 -224t55.5 -273q0 -190 -94 -351.5t-256 -255.5t-352 -94t-351.5 94t-255.5 255.5t-94 351.5zM197 674q0 -122 47.5 -233t127.5 -191.5t191.5 -128t233.5 -47.5t233.5 47.5t192 128 t128.5 191.5t48 233t-47.5 233.5t-128.5 192.5t-192.5 128.5t-233.5 47.5t-233.5 -47.5t-191.5 -128.5t-127.5 -192.5t-47.5 -233.5zM492 283v782h331q160 0 240 -62t80 -169q0 -69 -41 -123.5t-113 -77.5q41 -12 71.5 -41.5t45 -68.5t21 -74.5t6.5 -69.5v-96h-142v77 q0 31 -1.5 52t-10 53.5t-23.5 52.5t-46.5 35.5t-75.5 15.5h-199v-286h-143zM635 692h178q86 0 137 33.5t51 93.5q0 61 -44 93t-148 32h-174v-252z" />
<glyph unicode="&#xaf;" horiz-adv-x="782" d="M117 1192v123h540v-123h-540z" />
<glyph unicode="&#xb0;" horiz-adv-x="681" d="M74 1098q0 110 78 189t188 79t189 -79t79 -189t-79 -188.5t-189 -78.5t-188 78.5t-78 188.5zM190 1098q0 -62 44 -106t106 -44q63 0 107.5 44t44.5 106q0 63 -44.5 107t-107.5 44q-62 0 -106 -44t-44 -107z" />
<glyph unicode="&#xb1;" d="M102 0h922v127h-922v-127zM102 565v133h394v316h133v-316h395v-133h-395v-315h-133v315h-394z" />
<glyph unicode="&#xb2;" horiz-adv-x="724" d="M94 1122q14 102 88 171t176 69q120 0 189 -62.5t69 -160.5q0 -46 -17 -87.5t-46 -73.5t-64 -60.5t-73.5 -53.5t-72.5 -47.5t-63 -47t-42 -48.5h378v-107h-510v60q0 51 29.5 98t73.5 81t96 70.5t96 67t73.5 69t29.5 77.5q0 54 -38 85t-99 31t-104 -37t-54 -94h-115z" />
<glyph unicode="&#xb3;" horiz-adv-x="686" d="M78 834h112q9 -50 54.5 -86.5t103.5 -36.5q65 0 104.5 35.5t39.5 84.5q0 51 -36.5 88t-101.5 37h-96v97h88q50 0 86.5 29t36.5 73q0 45 -33 73.5t-92 28.5q-56 0 -92.5 -30t-44.5 -74h-111q10 84 76 147.5t170 63.5q105 0 172.5 -50t67.5 -138q0 -117 -105 -168 q65 -28 96 -73.5t31 -115.5q0 -97 -76.5 -155t-179.5 -58q-106 0 -183.5 65.5t-86.5 162.5z" />
<glyph unicode="&#xb4;" horiz-adv-x="714" d="M176 1167l125 215h219l-219 -215h-125z" />
<glyph unicode="&#xb5;" horiz-adv-x="1155" d="M147 -406v1430h154v-592q0 -139 80 -224t207 -85q130 0 219.5 87.5t89.5 223.5v590h154v-1024h-154v160q-63 -84 -140 -130t-192 -46q-163 0 -264 110v-500h-154z" />
<glyph unicode="&#xb6;" horiz-adv-x="1157" d="M74 1028q0 143 100 243.5t242 100.5h626v-110h-88v-1551h-120v1551h-148v-1551h-121v975h-149q-142 0 -242 100t-100 242z" />
<glyph unicode="&#xb7;" horiz-adv-x="415" d="M109 496v209h198v-209h-198z" />
<glyph unicode="&#xb8;" horiz-adv-x="614" d="M68 -346l38 67q85 -61 175 -61q112 0 112 74q0 30 -32 48.5t-76 18.5q-39 0 -72 -10l-43 35l141 221h88l-90 -158q30 5 45 5q79 0 134 -43.5t55 -114.5q0 -82 -66.5 -124t-167.5 -42q-141 0 -241 84z" />
<glyph unicode="&#xb9;" horiz-adv-x="434" d="M53 1249v107h262v-740h-112v633h-150z" />
<glyph unicode="&#xba;" horiz-adv-x="700" d="M76 1083q0 122 75.5 201.5t198.5 79.5t199 -79.5t76 -201.5t-76 -201t-199 -79t-198.5 79t-75.5 201zM182 1083q0 -78 44 -130t124 -52t124 52t44 130q0 77 -44.5 130t-123.5 53t-123.5 -53t-44.5 -130z" />
<glyph unicode="&#xbb;" horiz-adv-x="997" d="M92 117l281 413l-281 414h182l267 -414l-267 -413h-182zM469 117l281 413l-281 414h182l267 -414l-267 -413h-182z" />
<glyph unicode="&#xbc;" horiz-adv-x="1460" d="M80 1249v107h262v-740h-113v633h-149zM201 -29l860 1409h131l-860 -1409h-131zM827 180v101l306 458h145v-458h94v-101h-94v-180h-113v180h-338zM942 281h223v335z" />
<glyph unicode="&#xbd;" horiz-adv-x="1544" d="M80 1249v107h262v-740h-113v633h-149zM201 -29l860 1409h131l-860 -1409h-131zM922 508q14 102 88 171t176 69q120 0 189 -63t69 -161q0 -63 -32.5 -117.5t-82 -93.5t-101 -72t-98.5 -68.5t-65 -66.5h379v-106h-510v59q0 51 29.5 98t73.5 81t95.5 70.5t95.5 67t73.5 69 t29.5 77.5q0 54 -38 85.5t-99 31.5t-104 -37t-54 -94h-114z" />
<glyph unicode="&#xbe;" horiz-adv-x="1607" d="M88 834h113q9 -50 54 -86.5t103 -36.5q65 0 104.5 35.5t39.5 84.5q0 51 -36 88t-101 37h-97v97h88q50 0 86.5 29t36.5 73q0 45 -33 73.5t-92 28.5q-56 0 -92.5 -30t-44.5 -74h-111q10 84 76 147.5t170 63.5q105 0 172.5 -50t67.5 -138q0 -117 -105 -168q65 -28 96 -73.5 t31 -115.5q0 -97 -76.5 -155t-179.5 -58q-106 0 -183.5 65.5t-86.5 162.5zM352 -29l860 1409h131l-860 -1409h-131zM979 180v101l305 458h146v-458h94v-101h-94v-180h-113v180h-338zM1094 281h223v335z" />
<glyph unicode="&#xbf;" horiz-adv-x="1038" d="M92 23q0 65 18.5 119.5t48.5 94t66 75.5t72 70.5t66 71.5t48.5 87t18.5 108h150q0 -68 -19 -126.5t-49 -101t-66.5 -80t-73 -72.5t-66.5 -70t-49 -80t-19 -96q0 -41 13.5 -79.5t41.5 -73.5t81.5 -56t125.5 -21q143 0 226 80.5t93 196.5h146q-9 -175 -133 -296.5 t-320 -121.5q-106 0 -189 31.5t-132 85t-74 118.5t-25 136zM406 815v209h198v-209h-198z" />
<glyph unicode="&#xc0;" horiz-adv-x="1355" d="M6 0l576 1356h192l576 -1356h-170l-166 393h-672l-166 -393h-170zM401 535h553l-276 661zM460 1679h220l125 -215h-125z" />
<glyph unicode="&#xc1;" horiz-adv-x="1355" d="M6 0l576 1356h192l576 -1356h-170l-166 393h-672l-166 -393h-170zM401 535h553l-276 661zM547 1464l125 215h219l-219 -215h-125z" />
<glyph unicode="&#xc2;" horiz-adv-x="1355" d="M6 0l576 1356h192l576 -1356h-170l-166 393h-672l-166 -393h-170zM389 1464l201 215h178l199 -215h-168l-121 111l-121 -111h-168zM401 535h553l-276 661z" />
<glyph unicode="&#xc3;" horiz-adv-x="1355" d="M6 0l576 1356h192l576 -1356h-170l-166 393h-672l-166 -393h-170zM365 1464q10 86 58 143.5t140 57.5q56 0 105 -21t91.5 -42t80.5 -21q40 0 65.5 25t34.5 57h66q-12 -86 -59.5 -143.5t-137.5 -57.5q-56 0 -106 20.5t-92.5 41t-80.5 20.5q-75 0 -102 -80h-63zM401 535 h553l-276 661z" />
<glyph unicode="&#xc4;" horiz-adv-x="1355" d="M6 0l576 1356h192l576 -1356h-170l-166 393h-672l-166 -393h-170zM401 535h553l-276 661zM426 1475v170h182v-170h-182zM747 1475v170h182v-170h-182z" />
<glyph unicode="&#xc5;" horiz-adv-x="1355" d="M6 0l565 1333q-36 25 -56.5 65t-20.5 85q0 76 53.5 130t128.5 54q78 0 132 -53.5t54 -130.5q0 -45 -21.5 -85t-58.5 -65l568 -1333h-170l-166 393h-672l-166 -393h-170zM401 535h553l-276 661zM588 1483q0 -37 26.5 -63.5t61.5 -26.5q38 0 65 26.5t27 63.5q0 38 -27 65 t-65 27q-36 0 -62 -27t-26 -65z" />
<glyph unicode="&#xc6;" horiz-adv-x="2093" d="M-6 0l928 1356h1091v-148h-792v-454h702v-150h-702v-457h792v-147h-946v379h-633l-256 -379h-184zM530 520h537v688h-70z" />
<glyph unicode="&#xc7;" horiz-adv-x="1413" d="M80 678q0 144 45.5 270.5t128.5 220.5t207.5 148.5t273.5 54.5q225 0 387 -115.5t228 -306.5h-162q-54 129 -165.5 201t-274.5 72q-160 0 -278.5 -73t-177.5 -195.5t-59 -276.5t59 -276.5t177.5 -195.5t278.5 -73q163 0 274.5 72t165.5 201h162q-65 -185 -217 -299 t-365 -123l-53 -95q30 5 45 5q79 0 133.5 -43.5t54.5 -114.5q0 -82 -66 -124t-167 -42q-142 0 -242 84l39 67q85 -61 174 -61q113 0 113 74q0 30 -32.5 48.5t-76.5 18.5q-39 0 -72 -10l-43 35l103 160q-138 10 -251.5 68t-189 150.5t-116.5 214t-41 259.5z" />
<glyph unicode="&#xc8;" horiz-adv-x="1245" d="M166 0v1356h997v-148h-844v-454h754v-150h-754v-457h844v-147h-997zM444 1679h220l125 -215h-125z" />
<glyph unicode="&#xc9;" horiz-adv-x="1245" d="M166 0v1356h997v-148h-844v-454h754v-150h-754v-457h844v-147h-997zM547 1464l125 215h219l-219 -215h-125z" />
<glyph unicode="&#xca;" horiz-adv-x="1245" d="M166 0v1356h997v-148h-844v-454h754v-150h-754v-457h844v-147h-997zM389 1464l201 215h178l199 -215h-168l-121 111l-121 -111h-168z" />
<glyph unicode="&#xcb;" horiz-adv-x="1245" d="M166 0v1356h997v-148h-844v-454h754v-150h-754v-457h844v-147h-997zM426 1475v170h182v-170h-182zM748 1475v170h182v-170h-182z" />
<glyph unicode="&#xcc;" horiz-adv-x="485" d="M32 1679h220l125 -215h-125zM166 0v1356h153v-1356h-153z" />
<glyph unicode="&#xcd;" horiz-adv-x="485" d="M102 1464l125 215h219l-219 -215h-125zM166 0v1356h153v-1356h-153z" />
<glyph unicode="&#xce;" horiz-adv-x="485" d="M-47 1464l201 215h178l199 -215h-168l-121 111l-121 -111h-168zM166 0v1356h153v-1356h-153z" />
<glyph unicode="&#xcf;" horiz-adv-x="485" d="M-10 1475v170h182v-170h-182zM166 0v1356h153v-1356h-153zM311 1475v170h183v-170h-183z" />
<glyph unicode="&#xd0;" horiz-adv-x="1458" d="M14 610v133h168v613h572q122 0 234 -47t198.5 -132t138 -215t51.5 -284t-51.5 -284t-138 -215t-198.5 -132t-234 -47h-572v610h-168zM336 145h412q106 0 196 42.5t150.5 115t94.5 169.5t34 206q0 146 -57.5 266.5t-167 193t-250.5 72.5h-412v-467h391v-133h-391v-465z " />
<glyph unicode="&#xd1;" horiz-adv-x="1501" d="M166 0v1356h178l838 -1141v1141h153v-1356h-178l-838 1145v-1145h-153zM438 1464q10 86 58.5 143.5t140.5 57.5q56 0 105 -21t91.5 -42t80.5 -21q40 0 65.5 25t34.5 57h65q-12 -87 -59 -144t-137 -57q-56 0 -106 20.5t-92.5 41t-80.5 20.5q-75 0 -102 -80h-64z" />
<glyph unicode="&#xd2;" horiz-adv-x="1536" d="M80 678q0 143 50 270.5t139 221t218.5 148t280.5 54.5t280.5 -54.5t218.5 -148t139 -221t50 -270.5t-50 -270.5t-139 -221t-218.5 -148t-280.5 -54.5t-280.5 54.5t-218.5 148t-139 221t-50 270.5zM233 678q0 -153 64 -276t187 -196t284 -73t284 73t187 196t64 276 t-64 276t-187 196t-284 73t-284 -73t-187 -196t-64 -276zM565 1679h220l125 -215h-125z" />
<glyph unicode="&#xd3;" horiz-adv-x="1536" d="M80 678q0 143 50 270.5t139 221t218.5 148t280.5 54.5t280.5 -54.5t218.5 -148t139 -221t50 -270.5t-50 -270.5t-139 -221t-218.5 -148t-280.5 -54.5t-280.5 54.5t-218.5 148t-139 221t-50 270.5zM233 678q0 -153 64 -276t187 -196t284 -73t284 73t187 196t64 276 t-64 276t-187 196t-284 73t-284 -73t-187 -196t-64 -276zM618 1464l125 215h220l-220 -215h-125z" />
<glyph unicode="&#xd4;" horiz-adv-x="1536" d="M80 678q0 143 50 270.5t139 221t218.5 148t280.5 54.5t280.5 -54.5t218.5 -148t139 -221t50 -270.5t-50 -270.5t-139 -221t-218.5 -148t-280.5 -54.5t-280.5 54.5t-218.5 148t-139 221t-50 270.5zM233 678q0 -153 64 -276t187 -196t284 -73t284 73t187 196t64 276 t-64 276t-187 196t-284 73t-284 -73t-187 -196t-64 -276zM479 1464l201 215h178l199 -215h-168l-121 111l-121 -111h-168z" />
<glyph unicode="&#xd5;" horiz-adv-x="1536" d="M80 678q0 143 50 270.5t139 221t218.5 148t280.5 54.5t280.5 -54.5t218.5 -148t139 -221t50 -270.5t-50 -270.5t-139 -221t-218.5 -148t-280.5 -54.5t-280.5 54.5t-218.5 148t-139 221t-50 270.5zM233 678q0 -153 64 -276t187 -196t284 -73t284 73t187 196t64 276 t-64 276t-187 196t-284 73t-284 -73t-187 -196t-64 -276zM451 1464q10 86 58 143.5t140 57.5q56 0 105 -21t91.5 -42t80.5 -21q40 0 65.5 25t34.5 57h66q-12 -86 -59.5 -143.5t-137.5 -57.5q-56 0 -106 20.5t-92.5 41t-80.5 20.5q-75 0 -102 -80h-63z" />
<glyph unicode="&#xd6;" horiz-adv-x="1536" d="M80 678q0 143 50 270.5t139 221t218.5 148t280.5 54.5t280.5 -54.5t218.5 -148t139 -221t50 -270.5t-50 -270.5t-139 -221t-218.5 -148t-280.5 -54.5t-280.5 54.5t-218.5 148t-139 221t-50 270.5zM233 678q0 -153 64 -276t187 -196t284 -73t284 73t187 196t64 276 t-64 276t-187 196t-284 73t-284 -73t-187 -196t-64 -276zM517 1475v170h182v-170h-182zM838 1475v170h182v-170h-182z" />
<glyph unicode="&#xd7;" d="M147 213l316 313l-316 316l103 100l313 -313l316 313l100 -100l-313 -316l313 -313l-100 -102l-316 315l-313 -315z" />
<glyph unicode="&#xd8;" horiz-adv-x="1536" d="M80 678q0 143 50 270.5t139 221t218.5 148t280.5 54.5q248 0 430 -139l137 160l66 -58l-139 -159q94 -94 144 -222t50 -276q0 -143 -50 -270.5t-139 -221t-218.5 -148t-280.5 -54.5q-244 0 -428 141l-139 -160l-64 58l139 157q-94 96 -145 224.5t-51 273.5zM233 678 q0 -232 142 -383l723 825q-134 103 -330 103q-161 0 -284 -73t-187 -196t-64 -276zM438 238q140 -105 330 -105q161 0 284 73t187 196t64 276q0 233 -140 385z" />
<glyph unicode="&#xd9;" horiz-adv-x="1452" d="M150 584v772h153v-776q0 -114 35.5 -202t95.5 -140t134 -78.5t157 -26.5q66 0 126.5 16t115.5 51t95 86t63.5 126.5t23.5 167.5v776h154v-772q0 -268 -161 -434t-417 -166q-255 0 -415 165.5t-160 434.5zM499 1679h220l125 -215h-125z" />
<glyph unicode="&#xda;" horiz-adv-x="1452" d="M150 584v772h153v-776q0 -114 35.5 -202t95.5 -140t134 -78.5t157 -26.5q66 0 126.5 16t115.5 51t95 86t63.5 126.5t23.5 167.5v776h154v-772q0 -268 -161 -434t-417 -166q-255 0 -415 165.5t-160 434.5zM602 1464l125 215h219l-219 -215h-125z" />
<glyph unicode="&#xdb;" horiz-adv-x="1452" d="M150 584v772h153v-776q0 -114 35.5 -202t95.5 -140t134 -78.5t157 -26.5q66 0 126.5 16t115.5 51t95 86t63.5 126.5t23.5 167.5v776h154v-772q0 -268 -161 -434t-417 -166q-255 0 -415 165.5t-160 434.5zM436 1464l201 215h178l199 -215h-168l-121 111l-121 -111h-168z " />
<glyph unicode="&#xdc;" horiz-adv-x="1452" d="M150 584v772h153v-776q0 -114 35.5 -202t95.5 -140t134 -78.5t157 -26.5q66 0 126.5 16t115.5 51t95 86t63.5 126.5t23.5 167.5v776h154v-772q0 -268 -161 -434t-417 -166q-255 0 -415 165.5t-160 434.5zM473 1475v170h182v-170h-182zM795 1475v170h182v-170h-182z" />
<glyph unicode="&#xdd;" horiz-adv-x="1288" d="M-2 1356h186l459 -660l459 660h186l-567 -819v-537h-154v537zM510 1464l125 215h219l-219 -215h-125z" />
<glyph unicode="&#xde;" horiz-adv-x="1284" d="M166 0v1356h153v-199h457q216 0 341.5 -118t125.5 -318q0 -201 -125.5 -318.5t-341.5 -117.5h-457v-285h-153zM319 428h447q158 0 241 77.5t83 215.5q0 137 -83.5 214t-240.5 77h-447v-584z" />
<glyph unicode="&#xdf;" horiz-adv-x="1140" d="M133 0v991q0 177 116.5 279t321.5 102q69 0 131 -13t117.5 -42.5t95.5 -72t63 -105.5t23 -140q0 -237 -221 -309q50 -12 96.5 -36t92.5 -64t74 -105.5t28 -146.5q0 -161 -125.5 -249.5t-345.5 -88.5h-180v135h182q145 0 229 56t84 169q0 119 -105 191t-292 72v112 q143 0 236.5 66t93.5 180t-71.5 184t-207.5 70q-134 0 -208 -57t-74 -195v-983h-154z" />
<glyph unicode="&#xe0;" horiz-adv-x="1218" d="M70 512q0 146 60.5 266t174.5 191t260 71q242 0 367 -182v166h153v-1024h-153v164q-123 -180 -367 -180q-146 0 -260 71t-174.5 191t-60.5 266zM223 512q0 -164 99 -276.5t264 -112.5q164 0 259 112t95 277t-95 277t-259 112q-165 0 -264 -112.5t-99 -276.5zM335 1382 h220l125 -215h-125z" />
<glyph unicode="&#xe1;" horiz-adv-x="1218" d="M70 512q0 146 60.5 266t174.5 191t260 71q242 0 367 -182v166h153v-1024h-153v164q-123 -180 -367 -180q-146 0 -260 71t-174.5 191t-60.5 266zM223 512q0 -164 99 -276.5t264 -112.5q164 0 259 112t95 277t-95 277t-259 112q-165 0 -264 -112.5t-99 -276.5zM446 1167 l125 215h220l-220 -215h-125z" />
<glyph unicode="&#xe2;" horiz-adv-x="1218" d="M70 512q0 146 60.5 266t174.5 191t260 71q242 0 367 -182v166h153v-1024h-153v164q-123 -180 -367 -180q-146 0 -260 71t-174.5 191t-60.5 266zM223 512q0 -164 99 -276.5t264 -112.5q164 0 259 112t95 277t-95 277t-259 112q-165 0 -264 -112.5t-99 -276.5zM278 1167 l201 215h178l199 -215h-168l-121 111l-121 -111h-168z" />
<glyph unicode="&#xe3;" horiz-adv-x="1218" d="M70 512q0 146 60.5 266t174.5 191t260 71q242 0 367 -182v166h153v-1024h-153v164q-123 -180 -367 -180q-146 0 -260 71t-174.5 191t-60.5 266zM223 512q0 -164 99 -276.5t264 -112.5q164 0 259 112t95 277t-95 277t-259 112q-165 0 -264 -112.5t-99 -276.5zM276 1167 q10 86 58.5 143.5t140.5 57.5q56 0 105 -21t91.5 -42t80.5 -21q40 0 65.5 25t34.5 57h66q-12 -86 -59.5 -143.5t-137.5 -57.5q-56 0 -106 20.5t-92.5 41t-80.5 20.5q-75 0 -102 -80h-64z" />
<glyph unicode="&#xe4;" horiz-adv-x="1218" d="M70 512q0 146 60.5 266t174.5 191t260 71q242 0 367 -182v166h153v-1024h-153v164q-123 -180 -367 -180q-146 0 -260 71t-174.5 191t-60.5 266zM223 512q0 -164 99 -276.5t264 -112.5q164 0 259 112t95 277t-95 277t-259 112q-165 0 -264 -112.5t-99 -276.5zM322 1186 v170h182v-170h-182zM643 1186v170h182v-170h-182z" />
<glyph unicode="&#xe5;" horiz-adv-x="1218" d="M70 512q0 146 60.5 266t174.5 191t260 71q242 0 367 -182v166h153v-1024h-153v164q-123 -180 -367 -180q-146 0 -260 71t-174.5 191t-60.5 266zM223 512q0 -164 99 -276.5t264 -112.5q164 0 259 112t95 277t-95 277t-259 112q-165 0 -264 -112.5t-99 -276.5zM389 1321 q0 76 53.5 130t128.5 54q78 0 132.5 -53.5t54.5 -130.5q0 -75 -54.5 -128.5t-132.5 -53.5q-75 0 -128.5 53.5t-53.5 128.5zM483 1321q0 -37 26.5 -63.5t61.5 -26.5q38 0 65.5 26.5t27.5 63.5q0 38 -27.5 65t-65.5 27q-36 0 -62 -27t-26 -65z" />
<glyph unicode="&#xe6;" horiz-adv-x="2000" d="M70 512q0 146 60.5 266t174.5 191t260 71q242 0 367 -182v166h153v-147q121 163 353 163q153 0 269.5 -71t177.5 -190.5t61 -266.5v-61h-859q18 -143 114 -235.5t249 -92.5q109 0 186 53.5t119 145.5h164q-51 -153 -178 -245.5t-303 -92.5q-234 0 -353 161v-145h-153v164 q-123 -180 -367 -180q-146 0 -260 71t-174.5 191t-60.5 266zM223 512q0 -164 99 -276.5t264 -112.5q164 0 259 112t95 277t-95 277t-259 112q-165 0 -264 -112.5t-99 -276.5zM1090 594h696q-23 136 -114 221.5t-234 85.5t-234 -85.5t-114 -221.5z" />
<glyph unicode="&#xe7;" horiz-adv-x="1114" d="M70 512q0 147 61 266.5t176.5 190.5t265.5 71q179 0 309 -93t175 -245h-166q-36 91 -113.5 145t-183.5 54q-166 0 -268.5 -113t-102.5 -276t102.5 -276t268.5 -113q106 0 183.5 54t113.5 145h166q-43 -143 -161.5 -234.5t-283.5 -101.5l-53 -97q30 5 45 5q79 0 134 -43.5 t55 -114.5q0 -82 -66.5 -124t-167.5 -42q-142 0 -242 84l39 67q85 -61 174 -61q113 0 113 74q0 30 -32 48.5t-76 18.5q-39 0 -72 -10l-43 35l102 162q-205 17 -328.5 165t-123.5 359z" />
<glyph unicode="&#xe8;" horiz-adv-x="1140" d="M70 512q0 147 61 266.5t177.5 190.5t269.5 71q152 0 269 -71t177.5 -190.5t60.5 -266.5v-61h-858q18 -142 115.5 -235t247.5 -93q103 0 178.5 46t118.5 126h168q-57 -145 -174 -228t-293 -83q-230 0 -374 152t-144 376zM229 594h697q-23 136 -114 221.5t-234 85.5 t-234.5 -85.5t-114.5 -221.5zM364 1382h220l125 -215h-125z" />
<glyph unicode="&#xe9;" horiz-adv-x="1140" d="M70 512q0 147 61 266.5t177.5 190.5t269.5 71q152 0 269 -71t177.5 -190.5t60.5 -266.5v-61h-858q18 -142 115.5 -235t247.5 -93q103 0 178.5 46t118.5 126h168q-57 -145 -174 -228t-293 -83q-230 0 -374 152t-144 376zM229 594h697q-23 136 -114 221.5t-234 85.5 t-234.5 -85.5t-114.5 -221.5zM432 1167l125 215h219l-219 -215h-125z" />
<glyph unicode="&#xea;" horiz-adv-x="1140" d="M70 512q0 147 61 266.5t177.5 190.5t269.5 71q152 0 269 -71t177.5 -190.5t60.5 -266.5v-61h-858q18 -142 115.5 -235t247.5 -93q103 0 178.5 46t118.5 126h168q-57 -145 -174 -228t-293 -83q-230 0 -374 152t-144 376zM229 594h697q-23 136 -114 221.5t-234 85.5 t-234.5 -85.5t-114.5 -221.5zM288 1167l201 215h178l199 -215h-168l-121 111l-121 -111h-168z" />
<glyph unicode="&#xeb;" horiz-adv-x="1140" d="M70 512q0 147 61 266.5t177.5 190.5t269.5 71q152 0 269 -71t177.5 -190.5t60.5 -266.5v-61h-858q18 -142 115.5 -235t247.5 -93q103 0 178.5 46t118.5 126h168q-57 -145 -174 -228t-293 -83q-230 0 -374 152t-144 376zM229 594h697q-23 136 -114 221.5t-234 85.5 t-234.5 -85.5t-114.5 -221.5zM326 1186v170h182v-170h-182zM647 1186v170h182v-170h-182z" />
<glyph unicode="&#xec;" horiz-adv-x="419" d="M6 1382h220l125 -215h-125zM133 0v1024h154v-1024h-154z" />
<glyph unicode="&#xed;" horiz-adv-x="419" d="M70 1167l125 215h219l-219 -215h-125zM133 0v1024h154v-1024h-154z" />
<glyph unicode="&#xee;" horiz-adv-x="419" d="M-80 1167l201 215h178l199 -215h-168l-121 111l-121 -111h-168zM133 0v1024h154v-1024h-154z" />
<glyph unicode="&#xef;" horiz-adv-x="419" d="M-43 1186v170h182v-170h-182zM133 0v1024h154v-1024h-154zM279 1186v170h182v-170h-182z" />
<glyph unicode="&#xf0;" horiz-adv-x="1173" d="M70 518q0 148 56 269t164 193.5t249 72.5q188 0 299 -121q-21 42 -50 78.5t-66 68t-65 52.5t-70 49q-4 3 -6.5 4.5t-5.5 3.5l-6 4l-114 -76l-66 78l88 57q-71 42 -131 68l55 145q106 -50 213 -121l154 103l66 -78l-134 -88q89 -71 153.5 -139.5t120 -156.5t83.5 -196.5 t28 -236.5q0 -109 -34.5 -210.5t-96.5 -181t-158 -127.5t-210 -48q-123 0 -222.5 42.5t-163 116t-97 169.5t-33.5 206zM223 518q0 -165 96 -281t259 -116t258.5 116t95.5 281q0 105 -44.5 195t-130.5 146t-196 56q-158 0 -248 -114t-90 -283z" />
<glyph unicode="&#xf1;" horiz-adv-x="1159" d="M133 0v1024h154v-160q62 82 143 129t197 47q80 0 153 -29t130.5 -83t91.5 -140t34 -192v-596h-153v592q0 139 -80 224t-207 85q-130 0 -219.5 -87.5t-89.5 -223.5v-590h-154zM268 1167q10 86 58.5 143.5t140.5 57.5q56 0 105 -21t91.5 -42t80.5 -21q40 0 65.5 25t34.5 57 h65q-12 -87 -59 -144t-137 -57q-56 0 -106 20.5t-92.5 41t-80.5 20.5q-75 0 -102 -80h-64z" />
<glyph unicode="&#xf2;" horiz-adv-x="1155" d="M70 512q0 147 61 266.5t177.5 190.5t269.5 71q152 0 269 -71t177.5 -190.5t60.5 -266.5t-60.5 -266.5t-177.5 -190.5t-269 -71q-153 0 -269.5 71t-177.5 190.5t-61 266.5zM223 512q0 -165 95.5 -277t259.5 -112t259 112t95 277t-95 277t-259 112t-259.5 -112t-95.5 -277z M370 1382h220l125 -215h-125z" />
<glyph unicode="&#xf3;" horiz-adv-x="1155" d="M70 512q0 147 61 266.5t177.5 190.5t269.5 71q152 0 269 -71t177.5 -190.5t60.5 -266.5t-60.5 -266.5t-177.5 -190.5t-269 -71q-153 0 -269.5 71t-177.5 190.5t-61 266.5zM223 512q0 -165 95.5 -277t259.5 -112t259 112t95 277t-95 277t-259 112t-259.5 -112t-95.5 -277z M430 1167l125 215h219l-219 -215h-125z" />
<glyph unicode="&#xf4;" horiz-adv-x="1155" d="M70 512q0 147 61 266.5t177.5 190.5t269.5 71q152 0 269 -71t177.5 -190.5t60.5 -266.5t-60.5 -266.5t-177.5 -190.5t-269 -71q-153 0 -269.5 71t-177.5 190.5t-61 266.5zM223 512q0 -165 95.5 -277t259.5 -112t259 112t95 277t-95 277t-259 112t-259.5 -112t-95.5 -277z M288 1167l201 215h178l199 -215h-168l-121 111l-121 -111h-168z" />
<glyph unicode="&#xf5;" horiz-adv-x="1155" d="M70 512q0 147 61 266.5t177.5 190.5t269.5 71q152 0 269 -71t177.5 -190.5t60.5 -266.5t-60.5 -266.5t-177.5 -190.5t-269 -71q-153 0 -269.5 71t-177.5 190.5t-61 266.5zM223 512q0 -165 95.5 -277t259.5 -112t259 112t95 277t-95 277t-259 112t-259.5 -112t-95.5 -277z M264 1167q10 86 58.5 143.5t140.5 57.5q56 0 105 -21t91 -42t80 -21q40 0 66 25t35 57h65q-12 -87 -59 -144t-137 -57q-56 0 -106 20.5t-92.5 41t-80.5 20.5q-75 0 -102 -80h-64z" />
<glyph unicode="&#xf6;" horiz-adv-x="1155" d="M70 512q0 147 61 266.5t177.5 190.5t269.5 71q152 0 269 -71t177.5 -190.5t60.5 -266.5t-60.5 -266.5t-177.5 -190.5t-269 -71q-153 0 -269.5 71t-177.5 190.5t-61 266.5zM223 512q0 -165 95.5 -277t259.5 -112t259 112t95 277t-95 277t-259 112t-259.5 -112t-95.5 -277z M326 1186v170h182v-170h-182zM647 1186v170h182v-170h-182z" />
<glyph unicode="&#xf7;" d="M78 410v141h971v-141h-971zM473 35v190h180v-190h-180zM473 735v191h180v-191h-180z" />
<glyph unicode="&#xf8;" horiz-adv-x="1155" d="M70 512q0 147 61 266.5t177.5 190.5t269.5 71q189 0 321 -106l111 123l53 -47l-111 -127q133 -145 133 -371q0 -147 -60.5 -266.5t-177.5 -190.5t-269 -71q-192 0 -320 106l-111 -125l-53 47l111 127q-135 151 -135 373zM223 512q0 -152 82 -260l498 571q-91 78 -225 78 q-164 0 -259.5 -112t-95.5 -277zM354 201q91 -78 224 -78q164 0 259 112t95 277q0 152 -80 258z" />
<glyph unicode="&#xf9;" horiz-adv-x="1159" d="M123 428v596h153v-592q0 -139 80 -224t207 -85q130 0 219.5 87.5t89.5 223.5v590h154v-1024h-154v160q-62 -82 -143 -129t-197 -47q-80 0 -153 29t-130.5 83t-91.5 140t-34 192zM358 1382h220l125 -215h-125z" />
<glyph unicode="&#xfa;" horiz-adv-x="1159" d="M123 428v596h153v-592q0 -139 80 -224t207 -85q130 0 219.5 87.5t89.5 223.5v590h154v-1024h-154v160q-62 -82 -143 -129t-197 -47q-80 0 -153 29t-130.5 83t-91.5 140t-34 192zM440 1167l125 215h219l-219 -215h-125z" />
<glyph unicode="&#xfb;" horiz-adv-x="1159" d="M123 428v596h153v-592q0 -139 80 -224t207 -85q130 0 219.5 87.5t89.5 223.5v590h154v-1024h-154v160q-62 -82 -143 -129t-197 -47q-80 0 -153 29t-130.5 83t-91.5 140t-34 192zM284 1167l201 215h178l199 -215h-168l-121 111l-121 -111h-168z" />
<glyph unicode="&#xfc;" horiz-adv-x="1159" d="M123 428v596h153v-592q0 -139 80 -224t207 -85q130 0 219.5 87.5t89.5 223.5v590h154v-1024h-154v160q-62 -82 -143 -129t-197 -47q-80 0 -153 29t-130.5 83t-91.5 140t-34 192zM322 1186v170h182v-170h-182zM643 1186v170h182v-170h-182z" />
<glyph unicode="&#xfd;" horiz-adv-x="1017" d="M8 1024h170l330 -840l336 840h168l-606 -1430h-166l186 420zM387 1167l125 215h219l-219 -215h-125z" />
<glyph unicode="&#xfe;" horiz-adv-x="1216" d="M133 -406v1840h154v-576q125 182 366 182q146 0 260 -71t175 -191t61 -266t-61 -266t-175 -191t-260 -71q-243 0 -366 180v-570h-154zM279 512q0 -165 95 -277t259 -112q165 0 263.5 112.5t98.5 276.5t-98.5 276.5t-263.5 112.5q-164 0 -259 -112t-95 -277z" />
<glyph unicode="&#xff;" horiz-adv-x="1017" d="M8 1024h170l330 -840l336 840h168l-606 -1430h-166l186 420zM258 1186v170h182v-170h-182zM580 1186v170h182v-170h-182z" />
<glyph unicode="&#x152;" horiz-adv-x="2342" d="M80 678q0 193 80 350t233.5 250.5t354.5 93.5q164 0 291.5 -62.5t213.5 -176.5v223h1008v-148h-854v-456h764v-150h-764v-455h854v-147h-1008v221q-86 -113 -213.5 -175t-291.5 -62q-201 0 -354.5 93.5t-233.5 250.5t-80 350zM233 678q0 -154 59 -276.5t177.5 -195.5 t278.5 -73q121 0 219 42t162 116t98.5 173t34.5 214t-34.5 214t-98.5 173t-162 116t-219 42q-160 0 -278.5 -73t-177.5 -195.5t-59 -276.5z" />
<glyph unicode="&#x153;" horiz-adv-x="1990" d="M70 512q0 147 61 266.5t177.5 190.5t269.5 71q148 0 256 -66.5t167 -182.5q61 117 169 183t257 66q153 0 269.5 -71t177.5 -190.5t61 -266.5v-61h-858q18 -143 114 -235.5t249 -92.5q109 0 186 53.5t119 145.5h164q-51 -153 -178.5 -245.5t-303.5 -92.5 q-149 0 -257.5 65.5t-168.5 181.5q-59 -116 -167 -181.5t-256 -65.5q-153 0 -269.5 71t-177.5 190.5t-61 266.5zM223 512q0 -165 95.5 -277t259.5 -112t259 112t95 277t-95 277t-259 112t-259.5 -112t-95.5 -277zM1079 594h697q-23 136 -114.5 221.5t-234.5 85.5t-234 -85.5 t-114 -221.5z" />
<glyph unicode="&#x178;" horiz-adv-x="1288" d="M-2 1356h186l459 -660l459 660h186l-567 -819v-537h-154v537zM392 1475v170h182v-170h-182zM713 1475v170h182v-170h-182z" />
<glyph unicode="&#x2c6;" horiz-adv-x="786" d="M100 1167l201 215h178l199 -215h-168l-121 111l-121 -111h-168z" />
<glyph unicode="&#x2dc;" horiz-adv-x="948" d="M145 1167q10 86 58.5 143.5t140.5 57.5q56 0 105 -21t91.5 -42t80.5 -21q40 0 65.5 25t34.5 57h65q-12 -87 -59 -144t-137 -57q-56 0 -106 20.5t-92.5 41t-80.5 20.5q-75 0 -102 -80h-64z" />
<glyph unicode="&#x2000;" horiz-adv-x="839" />
<glyph unicode="&#x2001;" horiz-adv-x="1679" />
<glyph unicode="&#x2002;" horiz-adv-x="839" />
<glyph unicode="&#x2003;" horiz-adv-x="1679" />
<glyph unicode="&#x2004;" horiz-adv-x="559" />
<glyph unicode="&#x2005;" horiz-adv-x="419" />
<glyph unicode="&#x2006;" horiz-adv-x="279" />
<glyph unicode="&#x2007;" horiz-adv-x="279" />
<glyph unicode="&#x2008;" horiz-adv-x="209" />
<glyph unicode="&#x2009;" horiz-adv-x="335" />
<glyph unicode="&#x200a;" horiz-adv-x="93" />
<glyph unicode="&#x2010;" horiz-adv-x="729" d="M109 530v150h512v-150h-512z" />
<glyph unicode="&#x2011;" horiz-adv-x="729" d="M109 530v150h512v-150h-512z" />
<glyph unicode="&#x2012;" horiz-adv-x="729" d="M109 530v150h512v-150h-512z" />
<glyph unicode="&#x2013;" horiz-adv-x="1249" d="M113 537v137h1024v-137h-1024z" />
<glyph unicode="&#x2014;" horiz-adv-x="2347" d="M150 537v137h2048v-137h-2048z" />
<glyph unicode="&#x2018;" horiz-adv-x="446" d="M74 973l180 436h139l-119 -436h-200z" />
<glyph unicode="&#x2019;" horiz-adv-x="432" d="M82 973l119 436h200l-180 -436h-139z" />
<glyph unicode="&#x201a;" horiz-adv-x="450" d="M23 -272l118 436h201l-180 -436h-139z" />
<glyph unicode="&#x201c;" horiz-adv-x="753" d="M74 973l180 436h139l-119 -436h-200zM381 973l180 436h139l-118 -436h-201z" />
<glyph unicode="&#x201d;" horiz-adv-x="739" d="M82 973l119 436h200l-180 -436h-139zM389 973l119 436h201l-181 -436h-139z" />
<glyph unicode="&#x201e;" horiz-adv-x="757" d="M23 -272l118 436h201l-180 -436h-139zM330 -272l119 436h200l-180 -436h-139z" />
<glyph unicode="&#x2022;" horiz-adv-x="696" d="M74 655q0 114 80 194.5t194 80.5t194.5 -80.5t80.5 -194.5t-80.5 -194t-194.5 -80t-194 80t-80 194z" />
<glyph unicode="&#x2026;" horiz-adv-x="1611" d="M109 0v209h198v-209h-198zM707 0v209h198v-209h-198zM1305 0v209h198v-209h-198z" />
<glyph unicode="&#x202f;" horiz-adv-x="335" />
<glyph unicode="&#x2039;" horiz-adv-x="620" d="M80 530l266 414h182l-280 -414l280 -413h-182z" />
<glyph unicode="&#x203a;" horiz-adv-x="620" d="M92 117l281 413l-281 414h182l267 -414l-267 -413h-182z" />
<glyph unicode="&#x205f;" horiz-adv-x="419" />
<glyph unicode="&#x20ac;" horiz-adv-x="1255" d="M86 516l45 111h127q-2 18 -2 51q0 32 4 90h-174l45 111h143q21 106 63.5 193t108.5 155.5t163.5 106.5t217.5 38q177 0 310 -76l-56 -139q-87 66 -245 66q-175 0 -274 -93.5t-132 -250.5h541l-43 -111h-514q-4 -58 -4 -90q0 -33 2 -51h460l-43 -111h-407 q15 -83 45 -149.5t79.5 -120.5t127 -83.5t176.5 -29.5q159 0 280 88l29 -147q-136 -90 -332 -90q-126 0 -226.5 41.5t-167.5 116t-107.5 168t-57.5 206.5h-182z" />
<glyph unicode="&#x2122;" horiz-adv-x="1669" d="M127 1260v96h586v-96h-244v-619h-100v619h-242zM836 641v715h106l236 -314l233 314h105v-715h-101v551l-237 -305l-242 305v-551h-100z" />
<glyph unicode="&#xe000;" horiz-adv-x="1024" d="M0 0v1024h1024v-1024h-1024z" />
<glyph unicode="&#xfb01;" horiz-adv-x="1015" d="M27 889v135h176v90q0 165 99.5 250.5t279.5 85.5h12v-145h-21q-109 0 -163 -49.5t-54 -153.5v-78h527v-1024h-154v889h-373v-889h-153v889h-176zM723 1196v201h166v-201h-166z" />
<glyph unicode="&#xfb02;" horiz-adv-x="1015" d="M27 889v135h176v90q0 165 99.5 250.5t279.5 85.5h12v-145h-21q-109 0 -163 -49.5t-54 -153.5v-78h238v-135h-238v-889h-153v889h-176zM729 0v1434h154v-1434h-154z" />
<glyph unicode="&#xfb03;" horiz-adv-x="1624" d="M27 889v135h176v90q0 165 99.5 250.5t279.5 85.5h12v-145h-21q-109 0 -163 -49.5t-54 -153.5v-78h455v90q0 165 99.5 250.5t279.5 85.5h12v-145h-20q-109 0 -163 -49.5t-54 -153.5v-78h526v-1024h-154v889h-372v-889h-154v889h-455v-889h-153v889h-176zM1331 1196v201 h166v-201h-166z" />
<glyph unicode="&#xfb04;" horiz-adv-x="1624" d="M27 889v135h176v90q0 165 99.5 250.5t279.5 85.5h12v-145h-21q-109 0 -163 -49.5t-54 -153.5v-78h455v90q0 165 99.5 250.5t279.5 85.5h12v-145h-20q-109 0 -163 -49.5t-54 -153.5v-78h237v-135h-237v-889h-154v889h-455v-889h-153v889h-176zM1337 0v1434h154v-1434h-154 z" />
</font>
</defs>
</svg>
